.
Авторизация | Регистрация
» » От заката до рассвета / From Dusk Till Dawn: The Series (2016) WEB-DLRip 720р | NEON Studio скачать торрент бесплатно




    От заката до рассвета / From Dusk Till Dawn: The Series (2016) WEB-DLRip 720р | NEON Studio скачать торрент бесплатно

    Опубликовал: Админ | Дата: 31-08-2016, 05:01 | Просмотров: 67



    Русское название: От заката до рассвета
    Русское название в мировом прокате: From Dusk Till Dawn: The Series
    Создали в: 2016
    Категория жанра: ужасы, боевик, криминал, вампиры
    Главный режиссер: Роберт Родригес, Джо Менендес, Эдуардо Санчес

    Актеры

    Ди Джей Котрона, Зейн Холц, Джесси Гарсиа, Эйса Гонсалес, Уилмер Вальдеррама, Эдрианн Палики, Джейк Бьюзи, Дон Джонсон, Мэдисон Девенпорт, Лэйн Гаррисон, Роберт Патрик, Брэндон Су Ху и др.
    Описание сериала:
    Сет Гекко, грабитель банков, и его не совсем психически стабильный братец Ричард находятся в розыске. Разыскивают их не только ФБР, но и техасские законники — шериф МакГроу и рейнджер Гонсалес, которые утраивают усилия после того, как после очередного ограбления, устроенного братьями Гекко, в банке остается несколько трупов. Пытаясь удрать в Мексику, Гекко сталкиваются с бывшим священником Джейкобом Фуллером и его семьей, которых берут в заложники и в их же трейлере отправляются к мексиканской границе. Заехав в небольшой стрип-клуб по дороге, они неудачно знакомятся с целой прорвой жаждущих крови вампиров и пытаются хотя бы дожить до рассвета, не говоря уже о том, чтобы истребить как можно больше чудовищ.
    Снималось в: США
    Время просмотра: ~00: 45: 00
    Перевод текста: Любительский (двухголосый) NEON Studio
    Субтитры: Отсутствуют

    Файл
    Тип видео: MKV
    Качество фильма: WEB-DLRip (720p)
    Информация о видео: MPEG-4 AVC, ~ 3500 Кбит/с, 1280x720
    Информация о звуке: 48 kHz, AC3 Dolby Digital, 2/0 (L, R) ch, ~192 kbps
    Релиз группа:

    MediaInfo
    Формат : Matroska
    Версия формата : Version 2
    Размер файла : 1, 07 Гбайт
    Продолжительность : 42 м.
    Общий поток : 3635 Кбит/сек
    Дата кодирования : UTC 2016-08-29 08: 29: 16
    Программа кодирования : mkvmerge v4.9.1 (;Ich will;) сборка от Jul 11 2011 23: 53: 15
    Библиотека кодирования : libebml v1.2.1 + libmatroska v1.1.1
    Видео
    Идентификатор : 1
    Формат : AVC
    Формат/Информация : Advanced Video Codec
    Профиль формата : Main@L5.1
    Параметр CABAC формата : Да
    Параметр ReFrames формата : 1 кадр
    Режим смешивания : Header stripping
    Идентификатор кодека : V_MPEG4/ISO/AVC
    Продолжительность : 42 м.
    Битрейт : 3370 Кбит/сек
    Ширина : 1280 пикселей
    Высота : 720 пикселей
    Соотношение сторон : 16: 9
    Режим частоты кадров : Постоянный
    Частота кадров : 23, 976 (23976/1000) кадра/сек
    Цветовое пространство : YUV
    Субдискретизация насыщенности : 4: 2: 0
    Битовая глубина : 8 бит
    Тип развёртки : Прогрессивная
    Бит/(Пиксели*Кадры) : 0.153
    Размер потока : 1013 Мбайт (93%)
    Default : Да
    Forced : Нет
    Аудио
    Идентификатор : 2
    Формат : AC-3
    Формат/Информация : Audio Coding 3
    Расширение режима : CM (complete main)
    Параметр Endianness формата : Big
    Режим смешивания : Header stripping
    Идентификатор кодека : A_AC3
    Продолжительность : 42 м.
    Вид битрейта : Постоянный
    Битрейт : 192 Кбит/сек
    Каналы : 2 канала
    Расположение каналов : Front: L R
    Частота : 48, 0 КГц
    Частота кадров : 31, 250 кадров/сек (1536 spf)
    Метод сжатия : С потерями
    Размер потока : 57, 7 Мбайт (5%)
    Default : Да
    Forced : Нет
    Внимание! Раздача ведётся путём добавления новых серий
    Внимание! Раздача ведётся путём добавления новых серий; при каждом добавлении создаётся новый торрент. Чтобы начать докачку новой серии, пользователям необходимо сделать следующее:
    (1) остановить скачивание,
    (2) удалить старый торрент у себя из клиента (старые серии удалять не надо),
    (3) скачать новый торрент и запустить его у себя в клиенте вместо старого, при этом указать клиенту путь в старую папку куда и должно происходить скачивание новых серий.
    Ваш клиент при этом должен произвести хеширование (проверку) старой папки (если не производит сам - помогите ему сделать это), и будет докачивать только те серии которых у вас ещё нет. Старые серии при этом не удаляются, а продолжают раздаваться!
    Eсли вы уже удалили старые серии, то предотвратить повторную закачку старых серий можно, отжав галочку в соответсвующих местах при запуске нового торрента. По возможности, желательно не удалять старые серии как можно дольше чтобы релизёр не столько продолжал раздавать старые серии, а смог сконцентрироваться на новых.
    Скриншоты

    Залил: SPARTA111

    Онлайн видео От заката до рассвета


    Размер скачиваемого торрента: 1.07 GB (1145588049 Bytes)

    От заката до рассвета/From Dusk Till Dawn: The Series (2016) WEB-DLRip 720р | NEON Studio
    загрузка...
    Рейтинг →
     (голосов: 1, оценка 4/5, голосовать можно 1 раз )

    Другие торренты по теме:

  • От заката до рассвета / From Dusk Till Dawn (1995) HDRip | Гоблин торрент скачать бесплатно
  • От заката до рассвета 2: Кровавые деньги из Техаса / From Dusk Till Dawn 2 (2006) HDRip | P торрент скачать бесплатно
  • От заката до рассвета 3: Дочь палача / From Dusk Till Dawn 3: The Hangmans Daughter (1999) BDRip | P торрент скачать бесплатно
  • Dead Horde: От заката до рассвета / Dead Horde (2013) PC торрент скачать бесплатно
  • Dead Horde. От заката до рассвета (2012) PC торрент скачать бесплатно
  • Dead Horde: От заката до рассвета (2012) PC | Repack от R.G. UPG торрент скачать бесплатно
  • От Заката до Рассвета / From Dusk Till Dawn (1996) BDRip | Дополнительные материалы торрент скачать бесплатно
  • От заката до рассвета / From Dusk Till Dawn (1996) DVD9 | P, A скачать через торрент бесплатно


    • Комментарии (0):

      Информация

      Информация

        Посетители, находящиеся в группе Гости, не могут оставлять комментарии в данной новости.

        ↓ Меню



        ↓ Опрос

        А Вы добавили сайт в закладки?
        Да
        Не


        Top 10 за неделю (Фильмы)