.
Авторизация | Регистрация
» » Поп-звезда: не переставай, не останавливайся / Popstar: Never Stop Never Stopping (2016) WEB-DLRip 1080р | L скачать торрент бесплатно




    Поп-звезда: не переставай, не останавливайся / Popstar: Never Stop Never Stopping (2016) WEB-DLRip 1080р | L скачать торрент бесплатно

    Опубликовал: Админ | Дата: 31-08-2016, 18:26 | Просмотров: 67



    Поп-звезда: не переставай, не останавливайся / Popstar: Never Stop Never Stopping
    Снималось в: США
    Создали в: Universal Pictures, Perfect World Pictures, Party Over Here, Apatow Productions
    Создали в: 2016
    Категория жанра: комедия, музыка
    Время просмотра: 01: 26: 25
    Главный режиссеры: Акива Шаффер, Йорма Такконе
    Авторы сценария: Энди Сэмберг, Акива Шаффер, Йорма Такконе

    Актеры
    Энди Сэмберг, Йорма Такконе, Акива Шаффер, Сара Силверман, Тим Медоуз, Майя Рудольф, Джоан Кьюсак, Имоджен Путс
    Описание: С самого детства Коннер был без ума от музыки. Ещё ребёнком он с двумя лучшими друзьями создал группу The Style Boyz. Группа стала очень популярной, и Коннор зазвездился, решив, что успех группы — исключительно его заслуга. Один друг детства вовсе перестал с ним разговаривать, другой работает у Коннера диджеем. А лучшие друзья суперзвёзды — его менеджер, организатор вечеринок и прочие непонятные личности, которым бы только тусоваться с утра до ночи. И вот приближается великий день — выход нового сольного альбома. Но, как известно, чем выше ты взлетел, тем больнее будет падать...

    Перевод текста: Любительский (многоголосый, закадровый) | студия Paradox Omskbird records
    Субтитры: нет
    Качество фильма: WEB-DLRip 1080р
    Тип видео: MKV
    Информация о видео кодек: AVC
    Информация о звуке кодек: АС3
    Информация о видео: 1916x796 (2.40: 1), 23.976 fps, MPEG-4 AVC ~3 991 kbps avg
    Информация о звуке: 48.0 kHz, AC3 Dolby Digital, 2/0 (L, R) ch, ~384 kbps
    Бюджет: $20 000 000
    Дата премьеры (мир): 24 мая 2016

    Media Info
    General
    Уникальный идентификатор : 243734088532565759579415347604414693400 (0xB75D7A5B68859F8A82049CD52BFE8018)
    Полное имя : Popstar.Never.Stop.Never.Stopping.2016.P.WEB-DL.1O8Op_ParadoxOMSKBIRD.mkv
    Формат : Matroska
    Версия формата : Version 2
    Размер файла : 2, 69 Гбайт
    Продолжительность : 1 ч. 26 м.
    Режим общего битрейта : Постоянный
    Общий поток : 4464 Кбит/сек
    Дата кодирования : UTC 2016-08-27 21: 15: 23
    Программа кодирования : mkvmerge v8.3.0 (;Over the Horizon;) 64bit
    Библиотека кодирования : libebml v1.3.1 + libmatroska v1.4.2
    Видео
    Идентификатор : 1
    Формат : AVC
    Формат/Информация : Advanced Video Codec
    Профиль формата : High@L4.1
    Параметр CABAC формата : Да
    Параметр ReFrames формата : 5 кадров
    Идентификатор кодека : V_MPEG4/ISO/AVC
    Продолжительность : 1 ч. 26 м.
    Вид битрейта : Постоянный
    Битрейт : 3991 Кбит/сек
    Номинальный битрейт : 4500 Кбит/сек
    Ширина : 1916 пикселей
    Высота : 796 пикселей
    Соотношение сторон : 2, 40: 1
    Режим частоты кадров : Постоянный
    Частота кадров : 23, 976 (24000/1001) кадра/сек
    Стандарт вещания : Component
    Цветовое пространство : YUV
    Субдискретизация насыщенности : 4: 2: 0
    Битовая глубина : 8 бит
    Тип развёртки : Прогрессивная
    Бит/(Пиксели*Кадры) : 0.109
    Размер потока : 2, 41 Гбайт (89%)
    Default : Да
    Forced : Нет
    Цветовой диапазон : Limited
    Основные цвета : BT.709
    Характеристики трансфера : BT.709
    Коэффициенты матрицы : BT.709
    Аудио
    Идентификатор : 2
    Формат : AC-3
    Формат/Информация : Audio Coding 3
    Расширение режима : CM (complete main)
    Параметр Endianness формата : Big
    Идентификатор кодека : A_AC3
    Продолжительность : 1 ч. 26 м.
    Вид битрейта : Постоянный
    Битрейт : 384 Кбит/сек
    Каналы : 2 канала
    Расположение каналов : Front: L R
    Частота : 48, 0 КГц
    Частота кадров : 31, 250 кадров/сек (1536 spf)
    Метод сжатия : С потерями
    Размер потока : 237 Мбайт (9%)
    Default : Да
    Forced : Нет

    Скриншоты

    Залил: Zha-4k-e

    Онлайн видео Поп-звезда: не переставай, не останавливайся


    Размер скачиваемого торрента: 2.69 GB (2893335418 Bytes)

    Поп-звезда: не переставай, не останавливайся/Popstar: Never Stop Never Stopping (2016) WEB-DLRip 1080р | L
    загрузка...
    Рейтинг →
     (голосов: 1, оценка 4/5, голосовать можно 1 раз )

    Другие торренты по теме:

  • Поп-звезда: не переставай, не останавливайся / Popstar: Never Stop Never Stopping (2016) HDRip от MegaPeer | iTunes скачать торрент бесплатно
  • Поп-звезда: не переставай, не останавливайся / Popstar: Never Stop Never Stopping (2016) BDRemux 1080р от ExKinoRay | iTunes скачать торрент бесплатно
  • Поп-звезда: не переставай, не останавливайся / Popstar: Never Stop Never Stopping (2016) BDRip 1080р от ExKinoRay | iTunes скачать торрент бесплатно


    • Комментарии (0):

      Информация

      Информация

        Посетители, находящиеся в группе Гости, не могут оставлять комментарии в данной новости.

        ↓ Меню



        ↓ Опрос

        А Вы добавили сайт в закладки?
        Да
        Не


        Top 10 за неделю (Фильмы)