.
Авторизация | Регистрация
» » Доктор Голливуд / Doc Hollywood (1991) WEB-DL 1080p | D, P, A скачать торрент бесплатно




    Доктор Голливуд / Doc Hollywood (1991) WEB-DL 1080p | D, P, A скачать торрент бесплатно

    Опубликовал: Админ | Дата: 31-08-2016, 18:26 | Просмотров: 86



    Детально о кино
    Русское название: Доктор Голливуд
    Русское название в мировом прокате: Doc Hollywood
    Создали в: 1991
    Категория жанра: драма, мелодрама, комедия
    Главный режиссер: Майкл Кейтон-Джонс

    Актеры
    Майкл Дж. Фокс, Джули Уорнер, Барнард Хьюз, Вуди Харрельсон, Бриджит Фонда, Фрэнсис Стернхаген, Джордж Хэмилтон, Дэвид Огден Стайерз, Мел Уинклер, Хелен Мартин

    Сюжет фильма

    Судьба подложила ему свинью. Бенджи Стоун был подающим надежды пластическим хирургом, ехал в Голливуд, и вдруг — авария на главной улице какого-то захолустного городка. Кто виноват? Конечно, Бенджи.
    Полиция определяет нарушителю наказание: 32 часа принудительных работ терапевтом в местной больнице. Нормально? Доктор Голливуд приступает к работе. И самое дикое — она ему нравится. Потому что рядом — прехорошенькая провинциалочка.

    Снималось в: США
    Киностудия: Warner Bros. Pictures
    Время просмотра: 01: 43: 24
    Перевод текста: Авторский (одноголосый, закадровый) А.Михалёв + Авторский (одноголосый, закадровый) Ю.Живов + Профессиональный (многоголосый, закадровый) DVD + Профессиональный (дублированный) Варус Видео + Профессиональный (многоголосый, закадровый) ОРТ + Профессиональный (многоголосый, закадровый) НТВ + Профессиональный (многоголосый, закадровый) РТР
    Файл
    Тип видео: Matroska
    Информация о видео: 1904x1076 at 23.976 fps, MPEG-4 AVC, ~5185 kbps avg
    Информация о звуке#1: Russian: 48 kHz, AC3 Dolby Digital, 2/0 (L, R) ch, ~192 kbps avg |Авторский, А.Михалёв|
    Информация о звуке#2: Russian: 48 kHz, AC3 Dolby Digital, 3/2 (L, C, R, l, r) + LFE ch, ~384 kbps avg |Авторский, Ю.Живов|
    Информация о звуке#3: Russian: 48 kHz, AC3 Dolby Digital, 2/0 (L, R) ch, ~192 kbps avg |Многоголосый закадровый, DVD|
    Информация о звуке#4: Russian: 48 kHz, AC3 Dolby Digital, 2/0 (L, R) ch, ~192 kbps avg |Дубляж, Варус Видео|
    Информация о звуке#5: Russian: 48 kHz, AC3 Dolby Digital, 2/0 (L, R) ch, ~192 kbps avg |Многоголосый закадровый, ОРТ|
    Информация о звуке#6: Russian: 48 kHz, AC3 Dolby Digital, 2/0 (L, R) ch, ~192 kbps avg |Многоголосый закадровый, НТВ|
    Информация о звуке#7: Russian: 48 kHz, AC3 Dolby Digital, 2/0 (L, R) ch, ~192 kbps avg |Многоголосый закадровый, РТР|
    Информация о звуке#8: English: 48 kHz, AC3 Dolby Digital, 3/2 (L, C, R, l, r) + LFE ch, ~384 kbps avg
    Субтитры: English, Czech, Turkish
    ***Релиз - AllFilms
    ***Сборка, синхронизация - tеko
    MI
    Общее
    Уникальный идентификатор : 181575188047794201550805654562690423231 (0x889A1BF3584D98D1AAA106E4C34DD9BF)
    Полное имя : Doc.Hollywood.1991.WEB-DL.1080p_teko.mkv
    Формат : Matroska
    Версия формата : Version 4/Version 2
    Размер файла : 5, 24 Гбайт
    Продолжительность : 1 ч. 43 м.
    Общий поток : 7249 Кбит/сек
    Дата кодирования : UTC 2016-08-30 06: 39: 00
    Программа кодирования : mkvmerge v7.9.0 (;Birds;) 64bit
    Библиотека кодирования : libebml v1.3.1 + libmatroska v1.4.2
    Видео
    Идентификатор : 1
    Формат : AVC
    Формат/Информация : Advanced Video Codec
    Профиль формата : High@L4
    Параметр CABAC формата : Да
    Параметр ReFrames формата : 4 кадра
    Параметр GOP формата : N=2
    Идентификатор кодека : V_MPEG4/ISO/AVC
    Продолжительность : 1 ч. 43 м.
    Битрейт : 5184 Кбит/сек
    Ширина : 1904 пикселя
    Высота : 1076 пикселей
    Соотношение сторон : 16: 9
    Режим частоты кадров : Постоянный
    Частота кадров : 23, 976 кадра/сек
    Цветовое пространство : YUV
    Субдискретизация насыщенности : 4: 2: 0
    Битовая глубина : 8 бит
    Тип развёртки : Прогрессивная
    Бит/(Пиксели*Кадры) : 0.106
    Размер потока : 3, 74 Гбайт (72%)
    Язык : English
    Default : Да
    Forced : Нет
    Цветовой диапазон : Limited
    Основные цвета : BT.709
    Характеристики трансфера : BT.709
    Коэффициенты матрицы : BT.709
    Аудио #1
    Идентификатор : 2
    Формат : AC-3
    Формат/Информация : Audio Coding 3
    Расширение режима : CM (complete main)
    Параметр Endianness формата : Big
    Идентификатор кодека : A_AC3
    Продолжительность : 1 ч. 43 м.
    Вид битрейта : Постоянный
    Битрейт : 192 Кбит/сек
    Каналы : 2 канала
    Расположение каналов : Front: L R
    Частота : 48, 0 КГц
    Метод сжатия : С потерями
    Размер потока : 142 Мбайт (3%)
    Заголовок : avo_Михалёв
    Язык : Russian
    Default : Да
    Forced : Нет
    Аудио #2
    Идентификатор : 3
    Формат : AC-3
    Формат/Информация : Audio Coding 3
    Расширение режима : CM (complete main)
    Параметр Endianness формата : Big
    Идентификатор кодека : A_AC3
    Продолжительность : 1 ч. 43 м.
    Вид битрейта : Постоянный
    Битрейт : 384 Кбит/сек
    Каналы : 6 каналов
    Расположение каналов : Front: L C R, Side: L R, LFE
    Частота : 48, 0 КГц
    Метод сжатия : С потерями
    Размер потока : 284 Мбайт (5%)
    Заголовок : avo_Живов
    Язык : Russian
    Default : Нет
    Forced : Нет
    Аудио #3
    Идентификатор : 4
    Формат : AC-3
    Формат/Информация : Audio Coding 3
    Расширение режима : CM (complete main)
    Параметр Endianness формата : Big
    Идентификатор кодека : A_AC3
    Продолжительность : 1 ч. 43 м.
    Вид битрейта : Постоянный
    Битрейт : 192 Кбит/сек
    Каналы : 2 канала
    Расположение каналов : Front: L R
    Частота : 48, 0 КГц
    Метод сжатия : С потерями
    Размер потока : 142 Мбайт (3%)
    Заголовок : mvo_dvd
    Язык : Russian
    Default : Нет
    Forced : Нет
    Аудио #4
    Идентификатор : 5
    Формат : AC-3
    Формат/Информация : Audio Coding 3
    Расширение режима : CM (complete main)
    Параметр Endianness формата : Big
    Идентификатор кодека : A_AC3
    Продолжительность : 1 ч. 43 м.
    Вид битрейта : Постоянный
    Битрейт : 192 Кбит/сек
    Каналы : 2 канала
    Расположение каналов : Front: L R
    Частота : 48, 0 КГц
    Метод сжатия : С потерями
    Размер потока : 142 Мбайт (3%)
    Заголовок : dub_Варус Видео
    Язык : Russian
    Default : Нет
    Forced : Нет
    Аудио #5
    Идентификатор : 6
    Формат : AC-3
    Формат/Информация : Audio Coding 3
    Расширение режима : CM (complete main)
    Параметр Endianness формата : Big
    Идентификатор кодека : A_AC3
    Продолжительность : 1 ч. 43 м.
    Вид битрейта : Постоянный
    Битрейт : 192 Кбит/сек
    Каналы : 2 канала
    Расположение каналов : Front: L R
    Частота : 48, 0 КГц
    Метод сжатия : С потерями
    Размер потока : 142 Мбайт (3%)
    Заголовок : mvo_ОРТ
    Язык : Russian
    Default : Нет
    Forced : Нет
    Аудио #6
    Идентификатор : 7
    Формат : AC-3
    Формат/Информация : Audio Coding 3
    Расширение режима : CM (complete main)
    Параметр Endianness формата : Big
    Идентификатор кодека : A_AC3
    Продолжительность : 1 ч. 43 м.
    Вид битрейта : Постоянный
    Битрейт : 192 Кбит/сек
    Каналы : 2 канала
    Расположение каналов : Front: L R
    Частота : 48, 0 КГц
    Метод сжатия : С потерями
    Размер потока : 142 Мбайт (3%)
    Заголовок : mvo_НТВ
    Язык : Russian
    Default : Нет
    Forced : Нет
    Аудио #7
    Идентификатор : 8
    Формат : AC-3
    Формат/Информация : Audio Coding 3
    Расширение режима : CM (complete main)
    Параметр Endianness формата : Big
    Идентификатор кодека : A_AC3
    Продолжительность : 1 ч. 43 м.
    Вид битрейта : Постоянный
    Битрейт : 192 Кбит/сек
    Каналы : 2 канала
    Расположение каналов : Front: L R
    Частота : 48, 0 КГц
    Метод сжатия : С потерями
    Размер потока : 142 Мбайт (3%)
    Заголовок : mvo_РТР
    Язык : Russian
    Default : Нет
    Forced : Нет
    Аудио #8
    Идентификатор : 9
    Формат : AC-3
    Формат/Информация : Audio Coding 3
    Расширение режима : CM (complete main)
    Параметр Endianness формата : Big
    Идентификатор кодека : A_AC3
    Продолжительность : 1 ч. 43 м.
    Вид битрейта : Постоянный
    Битрейт : 384 Кбит/сек
    Каналы : 6 каналов
    Расположение каналов : Front: L C R, Side: L R, LFE
    Частота : 48, 0 КГц
    Метод сжатия : С потерями
    Размер потока : 284 Мбайт (5%)
    Заголовок : Original English
    Язык : English
    Default : Нет
    Forced : Нет
    Текст #1
    Идентификатор : 10
    Формат : UTF-8
    Идентификатор кодека : S_TEXT/UTF8
    Идентификатор кодека/Информация : UTF-8 Plain Text
    Язык : English
    Default : Нет
    Forced : Нет
    Текст #2
    Идентификатор : 11
    Формат : UTF-8
    Идентификатор кодека : S_TEXT/UTF8
    Идентификатор кодека/Информация : UTF-8 Plain Text
    Язык : Czech
    Default : Нет
    Forced : Нет
    Текст #3
    Идентификатор : 12
    Формат : UTF-8
    Идентификатор кодека : S_TEXT/UTF8
    Идентификатор кодека/Информация : UTF-8 Plain Text
    Язык : Turkish
    Default : Нет
    Forced : Нет
    Скриншоты



    Онлайн видео Доктор Голливуд


    Размер скачиваемого торрента: 5.24 GB (5621916928 Bytes)

    Доктор Голливуд/Doc Hollywood (1991) WEB-DL 1080p | D, P, A
    загрузка...
    Рейтинг →
     (голосов: 1, оценка 4/5, голосовать можно 1 раз )

    Другие торренты по теме:

  • Доктор Голливуд / Doc Hollywood / 1991 / ПМ, АП (Михалёв, Живов) / HDTV (1080i) скачать торрент бесплатно


    • Комментарии (0):

      Информация

      Информация

        Посетители, находящиеся в группе Гости, не могут оставлять комментарии в данной новости.

        ↓ Меню



        ↓ Опрос

        А Вы добавили сайт в закладки?
        Да
        Не


        Top 10 за неделю (Фильмы)