.
Авторизация | Регистрация
Хочешь лучшие торренты? Добавь свой email!
Добавить
» » Крутые меры / Bastille Day (2016) BDRip 720p от ExKinoRay | A торрент скачать бесплатно




    Крутые меры / Bastille Day (2016) BDRip 720p от ExKinoRay | A торрент скачать бесплатно

    Опубликовал: Админ | Дата: 1-09-2016, 05:00 | Просмотров: 85



    Детально о кино
    Русское название: Крутые меры
    Русское название в мировом прокате: Bastille Day
    Создали в: 2016
    Категория жанра: Боевик, драма
    Главный режиссер: Джеймс Уоткинс

    Актеры
    Идрис Эльба, Ричард Мэдден, Келли Райлли, Шарлотта Ле Бон, Анатол Юсеф, Хорхе Леон Мартинес, Карл Фаррер, Хосе Гарсиа, Александр Купер, Эрик Эбони
    О фильме:
    Ловкий карманник Майкл Мэйсон привлекает внимание полиции и спецслужб, когда крадет сумку, содержащую гораздо больше, чем просто бумажник. На его след выходит дерзкий и резкий спецагент ЦРУ Шон Брайар. Вдвоем они становятся мишенью тайной преступной организации и в течение суток должны вывести злоумышленников на чистую воду.

    Снималось в: Великобритания, Франция, США
    Киностудия: Canal+
    Время просмотра: 01: 31: 48
    Перевод текста: Авторский одноголосый (закадровый) | Дмитрий Есарев
    Файл
    Кодек для видео: MPEG-4
    Качество фильма: BDRip 720p
    Информация о видео: 1280x536, 3868 Kbit/s, 24.000 fps
    Информация о звуке:
    Информация о звуке #01: 48 kHz, DTS, 5.1, 1510 Kbps | Авторский одноголосый (закадровый) | Дмитрий Есарев |
    Информация о звуке #02: 48 kHz, AC3, 5.1, 640 Kbps | Авторский одноголосый (закадровый) | Дмитрий Есарев |
    Информация о звуке #03: 48 kHz, DTS, 5.1, 1500 kbps | Оригинал |
    Субтитры: Английские

    MI
    General
    Unique ID : 202169072764686764516616733928185307538 (0x981858DBFB4338DBBFFD51850F7AA192)
    Complete name : G: VideoНовая папка (2)Bastille.Day.2016.AVO.BDRip.720p.ExKinoRay.mkv
    Format : Matroska
    Format version : Version 4/Version 2
    File size : 4.92 GiB
    Duration : 1 h 39 min
    Overall bit rate : 7 047 kb/s
    Movie name : Bastille.Day.2016.AVO.BDRip.720p.ExKinoRay
    Encoded date : UTC 2016-08-31 22: 37: 59
    Writing application : mkvmerge v8.3.0 (;Over the Horizon;) 64bit
    Writing library : libebml v1.3.1 + libmatroska v1.4.2
    Video
    ID : 1
    Format : AVC
    Format/Info : Advanced Video Codec
    Format profile : High@L4.1
    Format settings, CABAC : Yes
    Format settings, ReFrames : 12 frames
    Codec ID : V_MPEG4/ISO/AVC
    Duration : 1 h 31 min
    Bit rate : 3 868 kb/s
    Width : 1 280 pixels
    Height : 536 pixels
    Display aspect ratio : 2.40: 1
    Frame rate mode : Constant
    Frame rate : 24.000 FPS
    Color space : YUV
    Chroma subsampling : 4: 2: 0
    Bit depth : 8 bits
    Scan type : Progressive
    Bits/(Pixel*Frame) : 0.235
    Stream size : 2.48 GiB (50%)
    Title : ***селезень***
    Writing library : x264 core 148 r2699+6+41 29a38aa Yuuki 8-bit@4: 2: 0 X86_64GCC 5.3.0
    Encoding settings : cabac=1/ref=12/deblock=1: -3: -3/analyse=0x3: 0x113/me=umh/subme=11/psy=1/fade_compensate=0.00/psy_rd=1.00: 0.05/mixed_ref=1/me_range=32/chroma_me=1/trellis=2/8x8dct=1/cqm=0/deadzone=21, 11/fast_pskip=0/chroma_qp_offset=-2/threads=8/lookahead_threads=1/sliced_threads=0/nr=0/decimate=1/interlaced=0/bluray_compat=0/constrained_intra=0/fgo=0/bframes=8/b_pyramid=2/b_adapt=2/b_bias=0/direct=3/weightb=1/open_gop=0/weightp=2/keyint=250/keyint_min=24/scenecut=40/intra_refresh=0/rc=crf/mbtree=0/crf=17.0000/qcomp=0.60/qpmin=0: 0: 0/qpmax=69: 69: 69/qpstep=4/ip_ratio=1.40/pb_ratio=1.30/aq=3: 0.90
    Language : English
    Default : Yes
    Forced : No
    Audio #1
    ID : 2
    Format : DTS
    Format/Info : Digital Theater Systems
    Mode : 16
    Format settings, Endianness : Big
    Codec ID : A_DTS
    Duration : 1 h 32 min
    Bit rate mode : Constant
    Bit rate : 1 509 kb/s
    Channel(s) : 6 channels
    Channel positions : Front: L C R, Side: L R, LFE
    Sampling rate : 48.0 kHz
    Frame rate : 93.750 FPS (512 spf)
    Bit depth : 24 bits
    Compression mode : Lossy
    Stream size : 995 MiB (20%)
    Title : AVO-DTS D.ESAREV
    Language : Russian
    Default : Yes
    Forced : No
    Audio #2
    ID : 3
    Format : AC-3
    Format/Info : Audio Coding 3
    Mode extension : CM (complete main)
    Format settings, Endianness : Big
    Codec ID : A_AC3
    Duration : 1 h 32 min
    Bit rate mode : Constant
    Bit rate : 640 kb/s
    Channel(s) : 6 channels
    Channel positions : Front: L C R, Side: L R, LFE
    Sampling rate : 48.0 kHz
    Frame rate : 31.250 FPS (1536 spf)
    Compression mode : Lossy
    Stream size : 422 MiB (8%)
    Title : AVO-AC3 D.ESAREV
    Language : Russian
    Default : No
    Forced : No
    Audio #3
    ID : 4
    Format : DTS
    Format/Info : Digital Theater Systems
    Mode : 16
    Format settings, Endianness : Big
    Codec ID : A_DTS
    Duration : 1 h 39 min
    Bit rate mode : Constant
    Bit rate : 1 509 kb/s
    Channel(s) : 6 channels
    Channel positions : Front: L C R, Side: L R, LFE
    Sampling rate : 48.0 kHz
    Frame rate : 93.750 FPS (512 spf)
    Bit depth : 24 bits
    Compression mode : Lossy
    Stream size : 1.05 GiB (21%)
    Title : Original
    Language : English
    Default : No
    Forced : No
    Text #1
    ID : 5
    Format : UTF-8
    Codec ID : S_TEXT/UTF8
    Codec ID/Info : UTF-8 Plain Text
    Duration : 1 h 28 min
    Bit rate : 35 b/s
    Count of elements : 651
    Stream size : 22.9 KiB (0%)
    Title : Full
    Language : English
    Default : No
    Forced : No
    Text #2
    ID : 6
    Format : UTF-8
    Codec ID : S_TEXT/UTF8
    Codec ID/Info : UTF-8 Plain Text
    Duration : 1 h 28 min
    Bit rate : 38 b/s
    Count of elements : 762
    Stream size : 24.8 KiB (0%)
    Title : SDH
    Language : English
    Default : No
    Forced : No
    Menu
    00: 00: 00.000 : en: 00: 00: 00.000
    00: 08: 06.625 : en: 00: 08: 06.625
    00: 16: 39.833 : en: 00: 16: 39.833
    00: 24: 20.625 : en: 00: 24: 20.625
    00: 33: 04.625 : en: 00: 33: 04.625
    00: 41: 03.625 : en: 00: 41: 03.625
    00: 48: 37.625 : en: 00: 48: 37.625
    00: 57: 03.417 : en: 00: 57: 03.417
    01: 07: 59.000 : en: 01: 07: 59.000
    01: 16: 54.625 : en: 01: 16: 54.625
    01: 21: 43.000 : en: 01: 21: 43.000
    01: 25: 26.833 : en: 01: 25: 26.833
    Скриншоты

    Релиз подготовил: Автор релиза:

    Онлайн видео Крутые меры


    Размер скачиваемого торрента: 4.92 GB (5282801498 Bytes)

    Крутые меры/Bastille Day (2016) BDRip 720p от ExKinoRay | A
    загрузка...
    Рейтинг →
     (голосов: 1, оценка 3/5, голосовать можно 1 раз )

    Другие торренты по теме:

  • Крутые меры / Bastille Day (2016) HDRip | L1
  • Крутые меры / Bastille Day (2016) BDRip 1080p | L
  • Крутые меры / Bastille Day / 2016 / ЛО / HDRip
  • Крутые меры / Bastille Day / 2016 / ЛО / BDRip (720p)
  • Крутые меры / Bastille Day / 2016 / ПМ / HDRip
  • Крутые меры / Bastille Day / 2016 / ЛО / Blu-Ray Remux (1080p)
  • Крутые меры / Bastille Day (2016) BDRemux 1080p от ExKinoRay | A
  • Крутые меры / Bastille Day (2016) BDRip от MegaPeer | A


    • Комментарии (0):

      Информация

      Информация

        Посетители, находящиеся в группе Гости, не могут оставлять комментарии в данной новости.

        ↓ Меню



        ↓ Опрос

        А Вы добавили сайт в закладки?
        Да
        Не


        Top 10 за месяц (Фильмы)