.
Авторизация | Регистрация
» » Первый мститель: Противостояние / Captain America: Civil War (2016) BDRip 1080p от ExKinoRay | D, P | iTunes скачать торрент бесплатно




    Первый мститель: Противостояние / Captain America: Civil War (2016) BDRip 1080p от ExKinoRay | D, P | iTunes скачать торрент бесплатно

    Опубликовал: Админ | Дата: 2-09-2016, 05:00 | Просмотров: 12



    Детально о кино
    Русское название: Первый мститель: Противостояние
    Русское название в мировом прокате: Captain America: Civil War
    Создали в: 2016
    Категория жанра: Фантастика, боевик, приключения
    Главный режиссер: Энтони Руссо, Джо Руссо

    Актеры
    Крис Эванс, Роберт Дауни мл., Скарлетт Йоханссон, Себастьян Стэн, Энтони Маки, Дон Чидл, Джереми Реннер, Чэдвик Боузмэн, Пол Беттани, Элизабет Олсен
    О фильме:
    После того, как Мстители помешали космическому засланцу отжать кусок исконных земель у мирного восточноевропейского государства и совершили еще множество глупых подвигов, они успешно приватизировали мир во всем мире. Однако, не все готовы терпеть супергеройские методы, зачастую имеющие разрушительные последствия и влекущие за собой человеческие жертвы. Стремясь урегулировать деятельность людей с расширенными возможностями и вынуждая их работать на государственные службы, правительство вводит Акт о регистрации супергероев. Стив Роджерс считает этот занимательный документ прямым ограничением своих прав и свобод. Он выступает против нового порядка. Тони Старк, напротив, поддерживает любую форму контроля. У каждого из них находятся свои сторонники в среде супергероев. Коренное разногласие в этом принципиальном вопросе приводит к идеологическому расколу Мстителей, а затем и к открытому конфликту между двумя супергеройскими фракциями. И пока Капитан Америка и Железный человек устраивают групповые дуэли, некий арийский иллюминат Гельмут Земо претворяет в жизнь свой коварный план, пользуясь досадными трениями между величайшими героями Земли.

    Снималось в: США
    Киностудия: Marvel Entertainment, Marvel Studios Inc., Studio Babelsberg
    Время просмотра: 02: 27: 41
    Перевод текстаы:
    #1: Дублированный | iTunes
    #2: Профессиональный многоголосый (закадровый) | FocusStudio
    Файл
    Кодек для видео: MPEG-4
    Качество фильма: BDRip 1080p
    Информация о видео: 1920x804, 9115 Кbit/s, 23.976 fps
    Информация о звуке:
    Информация о звуке #01: 48 kHz, AC3, 5.1, 384 Kbps | Дублированный, iTunes |
    Информация о звуке #02: 48 kHz, DTS, 5.1, 1510 Kbps | Профессиональный многоголосый (закадровый) | FocusStudio |
    Информация о звуке #03: 48 kHz, AC3, 5.1, 640 Kbps | Профессиональный многоголосый (закадровый) | FocusStudio |
    Информация о звуке #04: 48 kHz, DTS, 5.1, 1510 kbps | Оригинал |
    Субтитры: Русские (полные, форсированные), английские (full, SDH)

    MI
    General
    Unique ID : 186291090488423189419653581225001017718 (0x8C265BE46FD966BF9BC312E167D8E176)
    Complete name : G: VideoSTREAMCaptain.America.Civil.War.2016.D.MVO.BDRip.1080p.ExKinoRay.mkv
    Format : Matroska
    Format version : Version 4/Version 2
    File size : 13.6 GiB
    Duration : 2 h 27 min
    Overall bit rate : 13.2 Mb/s
    Movie name : ***селезень***
    Encoded date : UTC 2016-09-01 13: 27: 40
    Writing application : mkvmerge v8.3.0 (;Over the Horizon;) 64bit
    Writing library : libebml v1.3.1 + libmatroska v1.4.2
    Video
    ID : 1
    Format : AVC
    Format/Info : Advanced Video Codec
    Format profile : High@L4.1
    Format settings, CABAC : Yes
    Format settings, ReFrames : 5 frames
    Codec ID : V_MPEG4/ISO/AVC
    Duration : 2 h 27 min
    Bit rate : 9 115 kb/s
    Width : 1 920 pixels
    Height : 804 pixels
    Display aspect ratio : 2.40: 1
    Frame rate mode : Constant
    Frame rate : 23.976 (24000/1001) FPS
    Color space : YUV
    Chroma subsampling : 4: 2: 0
    Bit depth : 8 bits
    Scan type : Progressive
    Bits/(Pixel*Frame) : 0.246
    Stream size : 9.40 GiB (69%)
    Title : ***селезень***
    Writing library : x264 core 146 r2538 121396c
    Encoding settings : cabac=1/ref=5/deblock=1: -3: -3/analyse=0x3: 0x133/me=umh/subme=10/psy=1/psy_rd=1.03: 0.15/mixed_ref=1/me_range=32/chroma_me=1/trellis=2/8x8dct=1/cqm=0/deadzone=21, 11/fast_pskip=0/chroma_qp_offset=-3/threads=12/lookahead_threads=2/sliced_threads=0/nr=0/decimate=0/interlaced=0/bluray_compat=0/constrained_intra=0/bframes=8/b_pyramid=2/b_adapt=2/b_bias=0/direct=3/weightb=1/open_gop=0/weightp=2/keyint=240/keyint_min=23/scenecut=40/intra_refresh=0/rc_lookahead=60/rc=2pass/mbtree=1/bitrate=9115/ratetol=1.0/qcomp=0.60/qpmin=0/qpmax=69/qpstep=4/cplxblur=20.0/qblur=0.5/vbv_maxrate=50000/vbv_bufsize=62500/nal_hrd=none/filler=0/ip_ratio=1.40/aq=1: 1.00
    Language : English
    Default : Yes
    Forced : No
    Audio #1
    ID : 2
    Format : AC-3
    Format/Info : Audio Coding 3
    Mode extension : CM (complete main)
    Format settings, Endianness : Big
    Codec ID : A_AC3
    Duration : 2 h 27 min
    Bit rate mode : Constant
    Bit rate : 384 kb/s
    Channel(s) : 6 channels
    Channel positions : Front: L C R, Side: L R, LFE
    Sampling rate : 48.0 kHz
    Frame rate : 31.250 FPS (1536 spf)
    Compression mode : Lossy
    Delay relative to video : 800 ms
    Stream size : 406 MiB (3%)
    Title : DUB iTunes
    Language : Russian
    Default : Yes
    Forced : No
    Audio #2
    ID : 3
    Format : DTS
    Format/Info : Digital Theater Systems
    Mode : 16
    Format settings, Endianness : Big
    Codec ID : A_DTS
    Duration : 2 h 27 min
    Bit rate mode : Constant
    Bit rate : 1 509 kb/s
    Channel(s) : 6 channels
    Channel positions : Front: L C R, Side: L R, LFE
    Sampling rate : 48.0 kHz
    Frame rate : 93.750 FPS (512 spf)
    Bit depth : 24 bits
    Compression mode : Lossy
    Stream size : 1.56 GiB (11%)
    Title : MVO-DTS FocusStudio
    Language : Russian
    Default : No
    Forced : No
    Audio #3
    ID : 4
    Format : AC-3
    Format/Info : Audio Coding 3
    Mode extension : CM (complete main)
    Format settings, Endianness : Big
    Codec ID : A_AC3
    Duration : 2 h 27 min
    Bit rate mode : Constant
    Bit rate : 640 kb/s
    Channel(s) : 6 channels
    Channel positions : Front: L C R, Side: L R, LFE
    Sampling rate : 48.0 kHz
    Frame rate : 31.250 FPS (1536 spf)
    Compression mode : Lossy
    Stream size : 676 MiB (5%)
    Title : MVO-AC3 FocusStudio
    Language : Russian
    Default : No
    Forced : No
    Audio #4
    ID : 5
    Format : DTS
    Format/Info : Digital Theater Systems
    Mode : 16
    Format settings, Endianness : Big
    Codec ID : A_DTS
    Duration : 2 h 27 min
    Bit rate mode : Constant
    Bit rate : 1 509 kb/s
    Channel(s) : 6 channels
    Channel positions : Front: L C R, Side: L R, LFE
    Sampling rate : 48.0 kHz
    Frame rate : 93.750 FPS (512 spf)
    Bit depth : 24 bits
    Compression mode : Lossy
    Stream size : 1.56 GiB (11%)
    Title : Original
    Language : English
    Default : No
    Forced : No
    Text #1
    ID : 6
    Format : UTF-8
    Codec ID : S_TEXT/UTF8
    Codec ID/Info : UTF-8 Plain Text
    Duration : 1 h 44 min
    Bit rate : 2 b/s
    Count of elements : 59
    Stream size : 1.91 KiB (0%)
    Title : Forced
    Language : Russian
    Default : Yes
    Forced : No
    Text #2
    ID : 7
    Format : UTF-8
    Codec ID : S_TEXT/UTF8
    Codec ID/Info : UTF-8 Plain Text
    Duration : 2 h 25 min
    Bit rate : 74 b/s
    Count of elements : 1722
    Stream size : 80.1 KiB (0%)
    Title : Full
    Language : Russian
    Default : No
    Forced : No
    Text #3
    ID : 8
    Format : UTF-8
    Codec ID : S_TEXT/UTF8
    Codec ID/Info : UTF-8 Plain Text
    Duration : 2 h 25 min
    Bit rate : 50 b/s
    Count of elements : 1865
    Stream size : 54.2 KiB (0%)
    Title : Full
    Language : English
    Default : No
    Forced : No
    Text #4
    ID : 9
    Format : UTF-8
    Codec ID : S_TEXT/UTF8
    Codec ID/Info : UTF-8 Plain Text
    Duration : 2 h 26 min
    Bit rate : 55 b/s
    Count of elements : 2105
    Stream size : 59.1 KiB (0%)
    Title : SDH
    Language : English
    Default : No
    Forced : No
    Menu
    00: 00: 00.000 : en: Chapter 1
    00: 09: 01.958 : en: Chapter 2
    00: 13: 04.993 : en: Chapter 3
    00: 21: 03.345 : en: Chapter 4
    00: 27: 53.380 : en: Chapter 5
    00: 31: 57.290 : en: Chapter 6
    00: 35: 08.398 : en: Chapter 7
    00: 42: 58.451 : en: Chapter 8
    00: 52: 04.621 : en: Chapter 9
    01: 05: 39.102 : en: Chapter 10
    01: 16: 41.639 : en: Chapter 11
    01: 22: 28.777 : en: Chapter 12
    01: 29: 29.489 : en: Chapter 13
    01: 34: 09.769 : en: Chapter 14
    01: 45: 38.582 : en: Chapter 15
    01: 55: 54.322 : en: Chapter 16
    02: 02: 35.056 : en: Chapter 17
    02: 12: 14.176 : en: Chapter 18
    02: 18: 29.384 : en: Chapter 19
    Скриншоты

    Релиз подготовил: Автор релиза:

    Онлайн видео Первый мститель: Противостояние


    Размер скачиваемого торрента: 13.58 GB (14578936562 Bytes)

    Первый мститель: Противостояние/Captain America: Civil War (2016) BDRip 1080p от ExKinoRay | D, P | iTunes
    загрузка...
    Рейтинг →
     (голосов: 1, оценка 3/5, голосовать можно 1 раз )

    Другие торренты по теме:

  • OST - Капитан Америка: Первый Мститель / Captain America: The First Avenger (2011) MP3 торрент скачать бесплатно
  • Первый мститель / Captain America: The First Avenger (2011) BDRip 1080p от Youtracker | Лицензия торрент скачать бесплатно
  • Первый мститель / Captain America: The First Avenger (2011) BDRip 720p от leonardo 59 Scarabey | Лицензия скачать через торрент бесплатно
  • Первый мститель: Другая война / Captain America: The Winter Soldier (2014) HD 1080p | Трейлер торрент скачать бесплатно
  • Первый мститель: Другая война / Captain America: The Winter Soldier (2014) DCPrip | 3D | Трейлер скачать через торрент бесплатно
  • Первый мститель: Другая война / Captain America: The Winter Soldier (2014) DCPrip 2K | Трейлер скачать через торрент бесплатно
  • Первый мститель: Другая война (2014) торрент скачать бесплатно
  • OST - Первый мститель: Другая война / Captain America: The Winter Soldier (2014) MP3 торрент скачать бесплатно


    • Комментарии (0):

      Информация

      Информация

        Посетители, находящиеся в группе Гости, не могут оставлять комментарии в данной новости.

        ↓ Меню



        ↓ Опрос

        А Вы добавили сайт в закладки?
        Да
        Не


        Top 10 за неделю (Фильмы)