.
Авторизация | Регистрация
Хочешь лучшие торренты? Добавь свой email!
Добавить
» » Инферно / Inferno (1999) HDRip от Portablius | P торрент скачать бесплатно




    Инферно / Inferno (1999) HDRip от Portablius | P торрент скачать бесплатно

    Опубликовал: Админ | Дата: 2-09-2016, 05:00 | Просмотров: 13



    Детально о кино
    Русское название: Инферно
    Русское название в мировом прокате: Inferno
    Создали в: 1999
    Категория жанра: боевик, драма, мелодрама
    Главный режиссер: Джон Г. Эвилдсен

    Актеры
    Жан-Клод Ван Дамм, Пэт Морита, Дэнни Трехо, Гэбриэлль Фицпатрик, Ларри Дрэйк, Винсент Скьявелли, Дэвид ’Шарк’ Фралик, Сайлас Уэйр Митчелл, Джонатан Эвилдсен, Джейми Прессли.

    Сюжет фильма
    Эдди Ломакс - одинокий воин, утративший веру в себя. Поиски старого друга - одинокого индейца-шамана - приводят его в разрушенный город с адским названием Инферно, где у Эдди много врагов. Полная луна и зов койота помогут ему обрести былую силу и осуществить благородную цель: защитить местных жителей от жестоких банд байкеров и контрабандистов.

    Снималось в: США
    Киностудия: Davis-Films, Lomax Productions, PM Entertainment Group Inc.
    Время просмотра: 01: 34: 57
    Перевод текста: Профессиональный (многоголосый, закадровый) РТР/ТВ3
    Субтитры: Нет
    Семпл
    Файл
    Кодек для видео: XviD
    Качество фильма: HDRip
    Информация о видео: 624x352 (1.77: 1), 24 fps, XviD build 73 ~955 kbps avg, 0.18 bit/pixel
    Информация о звуке: 48 kHz, MPEG Layer 3, 2 ch, ~128.00 kbps avg
    MediaInfo
    Общее
    Полное имя : Inferno.1999.HDRip.ot.Portablius.avi
    Формат : AVI
    Формат/Информация : Audio Video Interleave
    Размер файла : 742 Мбайт
    Продолжительность : 1 ч. 34 м.
    Общий поток : 1093 Кбит/сек
    Программа кодирования : VirtualDubMod 1.5.10.3 | www.virtualdub-fr.org || (build 2550/release)
    Библиотека кодирования : VirtualDubMod build 2550/release
    Видео
    Идентификатор : 0
    Формат : MPEG-4 Visual
    Профиль формата : Advanced Simple@L5
    Параметр BVOP формата : 1
    Параметр QPel формата : Нет
    Параметр GMC формата : Без точки перехода
    Параметр матрицы формата : Выборочная
    Идентификатор кодека : XVID
    Идентификатор кодека/Подсказка : XviD
    Продолжительность : 1 ч. 34 м.
    Битрейт : 956 Кбит/сек
    Ширина : 624 пикселя
    Высота : 352 пикселя
    Соотношение сторон : 16: 9
    Частота кадров : 24, 000 кадра/сек
    Цветовое пространство : YUV
    Субдискретизация насыщенности : 4: 2: 0
    Битовая глубина : 8 бит
    Тип развёртки : Прогрессивная
    Метод сжатия : С потерями
    Бит/(Пиксели*Кадры) : 0.181
    Размер потока : 649 Мбайт (87%)
    Библиотека кодирования : XviD 73
    Аудио
    Идентификатор : 1
    Формат : MPEG Audio
    Версия формата : Version 1
    Профиль формата : Layer 3
    Идентификатор кодека : 55
    Идентификатор кодека/Подсказка : MP3
    Продолжительность : 1 ч. 34 м.
    Вид битрейта : Постоянный
    Битрейт : 128 Кбит/сек
    Каналы : 2 канала
    Частота : 48, 0 КГц
    Метод сжатия : С потерями
    Размер потока : 86, 9 Мбайт (12%)
    Выравнивание : Соединение по промежуткам
    Продолжительность промежутка : 42 мс. (1, 00 видеокадр)
    Время предзагрузки промежутка : 504 мс.
    Библиотека кодирования : LAME3.99r
    Залил: Evgen Portable

    Онлайн видео Инферно


    Размер скачиваемого торрента: 742.44 MB (778502144 Bytes)


    Инферно/Inferno (1999) HDRip от Portablius | P
    загрузка...
    Рейтинг →
     (голосов: 1, оценка 4/5, голосовать можно 1 раз )

    Другие торренты по теме:

  • Инферно / Inferno (2016) HDRip от k.e.n MegaPeer | A
  • Инферно / Inferno (1999) BDRip 1080p
  • Преисподняя / Инферно / Inferno (1980) BDRip 720p от NovaLan скачать через торрент бесплатно
  • Инферно / Inferno (1997) DVDRip | P2
  • Инферно / Inferno (Operation Cobra) / 1997 / ПД / DVDRip
  • Инферно / Inferno / 1999 / АП (Живов) / BDRip
  • Инферно / Inferno (2014) DVDRip | Sub
  • Инферно / Inferno (2014) DVDRip | L2


    • Комментарии (0):

      Информация

      Информация

        Посетители, находящиеся в группе Гости, не могут оставлять комментарии в данной новости.

        ↓ Меню



        ↓ Опрос

        А Вы добавили сайт в закладки?
        Да
        Не


        Top 10 за месяц (Фильмы)