.
Авторизация | Регистрация
» » Заклятие 2 / The Conjuring 2 (2016) BDRip 720p от Scarabey | iTunes скачать торрент бесплатно




    Заклятие 2 / The Conjuring 2 (2016) BDRip 720p от Scarabey | iTunes скачать торрент бесплатно

    Опубликовал: Админ | Дата: 2-09-2016, 05:00 | Просмотров: 12



    Создали в: 2016
    Снималось в: США, Канада
    Категория жанра: ужасы, триллер, детектив
    Время просмотра: 02: 13: 52
    Перевод текста: Професиональный (полное дублирование)
    Субтитры подготовлены: русские (форсированные)
    Главный режиссер: Джеймс Ван/James Wan

    Актеры
    Патрик Уилсон, Вера Фармига, Мэдисон Вульф, Фрэнсис О’Коннор, Лорен Эспозито, Бенжамин Хэй, Патрик МакОли, Саймон МакБерни, Мария Дойл Кеннеди, Саймон Делани

    Описание фильма
    Фильм основан на случае, с которым столкнулись практикующие исследователи паранормальных явлений Эд и Лоррэйн Уоррены. На этот раз вызов будет из северного пригорода Лондона, где семья, состоящая из четырех детей и матери-одиночки, подвергается нападениям потусторонних сил. Супругам предстоит выяснить, какова природа этих явлений, полтергейст ли это, или что-то другое, и главное — почему именно этот дом и именно эта семья.
    Качество фильма видео: BDRip 720p
    Тип видео видео: MKV
    Информация о видео: 1280х534, 23.976 fps, AVC ~4034 kbps avg
    Информация о звуке: 48 kHz, AC3 Dolby Digital, 3/2 (L, C, R, l, r) + LFE ch, ~384 kbps
    Релиз подготовил:
    АНОНСЫ МОИХ РАЗДАЧ!



    МедиаИнфо

    The.Conjuring.2.2016.720p_BDRip_scarabey.org.mkv
    Формат : Matroska
    Версия формата : Version 4/Version 2
    Размер файла : 4, 22 Гбайт
    Продолжительность : 2 ч. 13 м.
    Общий поток : 4508 Кбит/сек
    Дата кодирования : UTC 2016-08-31 20: 15: 08
    Программа кодирования : mkvmerge v6.1.0 (;Old Devil;) built on Mar 4 2013 09: 10: 42
    Библиотека кодирования : libebml v1.3.0 + libmatroska v1.4.0
    Видео
    Идентификатор : 1
    Формат : AVC
    Формат/Информация : Advanced Video Codec
    Профиль формата : High@L4.1
    Параметр CABAC формата : Да
    Параметр ReFrames формата : 12 кадров
    Идентификатор кодека : V_MPEG4/ISO/AVC
    Продолжительность : 2 ч. 13 м.
    Битрейт : 4034 Кбит/сек
    Ширина : 1280 пикселей
    Высота : 534 пикселя
    Соотношение сторон : 2, 40: 1
    Режим частоты кадров : Постоянный
    Частота кадров : 23, 976 (24000/1001) кадра/сек
    Цветовое пространство : YUV
    Субдискретизация насыщенности : 4: 2: 0
    Битовая глубина : 8 бит
    Тип развёртки : Прогрессивная
    Бит/(Пиксели*Кадры) : 0.246
    Размер потока : 3, 77 Гбайт (89%)
    Библиотека кодирования : x264 core 148 r2705+45 bdacf7a 7mod 8-bit@all X86_64
    Настройки программы : cabac=1/ref=12/deblock=1: -3: -3/analyse=0x3: 0x113/me=umh/subme=11/psy=1/fade_compensate=0.00/psy_rd=1.00: 0.05/mixed_ref=1/me_range=32/chroma_me=1/trellis=2/8x8dct=1/cqm=0/deadzone=21, 11/fast_pskip=0/chroma_qp_offset=-2/threads=8/lookahead_threads=1/sliced_threads=0/nr=0/decimate=1/interlaced=0/bluray_compat=0/constrained_intra=0/fgo=0/bframes=8/b_pyramid=2/b_adapt=2/b_bias=0/direct=3/weightb=1/open_gop=0/weightp=2/keyint=250/keyint_min=23/scenecut=40/intra_refresh=0/rc=crf/mbtree=0/crf=17.5000/qcomp=0.60/qpmin=0: 0: 0/qpmax=69: 69: 69/qpstep=4/ip_ratio=1.40/pb_ratio=1.30/aq=4: 0.90/aq-sensitivity=10.00/aq-factor=1.00: 1.00: 1.00/aq2=0/aq3=0
    Язык : English
    Default : Да
    Forced : Нет
    Аудио
    Идентификатор : 2
    Формат : AC-3
    Формат/Информация : Audio Coding 3
    Расширение режима : CM (complete main)
    Параметр Endianness формата : Big
    Идентификатор кодека : A_AC3
    Продолжительность : 2 ч. 13 м.
    Вид битрейта : Постоянный
    Битрейт : 384 Кбит/сек
    Каналы : 6 каналов
    Расположение каналов : Front: L C R, Side: L R, LFE
    Частота : 48, 0 КГц
    Частота кадров : 31, 250 кадров/сек (1536 spf)
    Метод сжатия : С потерями
    Размер потока : 368 Мбайт (9%)
    Заголовок : Дубляж - iTunes
    Язык : Russian
    Default : Да
    Forced : Нет
    Текст
    Идентификатор : 3
    Формат : UTF-8
    Идентификатор кодека : S_TEXT/UTF8
    Идентификатор кодека/Информация : UTF-8 Plain Text
    Заголовок : русские, форсированные
    Язык : Russian
    Default : Да
    Forced : Нет



    Онлайн видео Заклятие 2


    Размер скачиваемого торрента: 4.22 GB (4526414836 Bytes)

    Заклятие 2/The Conjuring 2 (2016) BDRip 720p от Scarabey | iTunes
    загрузка...
    Рейтинг →
     (голосов: 1, оценка 3/5, голосовать можно 1 раз )

    Другие торренты по теме:

  • Заклятие / The Conjuring (2013) CAMRip торрент скачать бесплатно
  • Заклятие / The Conjuring (2013) WEBRip-AVC | L1 торрент скачать бесплатно
  • Заклятие / The Conjuring (2013) DVDRip | L1 торрент скачать бесплатно
  • Заклятие / The Conjuring (2013) DVDRip | Звук с CAMRip торрент скачать бесплатно
  • Заклятие / The Conjuring (2013) DVDRip от INTERCINEMA | L1 скачать через торрент бесплатно
  • Заклятие / The Conjuring (2013) BDRip 1080p от MULTIBITS | Звук с CAMRip | L1 скачать через торрент бесплатно
  • Заклятие / The Conjuring (2013) BDRip 720p от MULTIBITS | Звук с CAMRip | L1 скачать через торрент бесплатно
  • Заклятие / The Conjuring (2013) HDRip | Звук с CAMRip скачать через торрент бесплатно


    • Комментарии (0):

      Информация

      Информация

        Посетители, находящиеся в группе Гости, не могут оставлять комментарии в данной новости.

        ↓ Меню



        ↓ Опрос

        А Вы добавили сайт в закладки?
        Да
        Не


        Top 10 за неделю (Фильмы)