.
Авторизация | Регистрация
» » Белоснежка и Охотник 2 / The Huntsman: Winters War (2016) DVD5 | Расширенная версия скачать торрент бесплатно




    Белоснежка и Охотник 2 / The Huntsman: Winters War (2016) DVD5 | Расширенная версия скачать торрент бесплатно

    Опубликовал: Админ | Дата: 2-09-2016, 05:01 | Просмотров: 82


    The story before Snow White

    Создали в: 2016
    Создали в: США/Universal Pictures, Roth Films
    Категория жанра: Фэнтези, боевик, драма, приключения
    Главный режиссер: Седрик Николя-Троян
    Продюсеры: Джо Рот, Сара Брэдшоу, Палак Патель
    Актеры: Крис Хемсворт, Шарлиз Терон, Джессика Честейн, Эмили Блант, Ник Фрост, Роб Брайдон, Шеридан Смит, Александра Роуч, Сопе Дирису, Сэм Хэзелдайн
    Описание фильма:
    Когда любовь уходит, сердце прекрасной девы обращается в лед. И даже сотни королевств не смогут сдержать поступь ее несметного воинства. Лишь Охотник не ведает страха. Сквозь проклятый лес он идет навстречу своей судьбе.
    Перевод текста: Дублированный
    Субтитры: Английские, русские
    Дата мировой премьеры: 29 марта 2016
    Дата премьеры в России: 14 апреля 2016, UPI
    Время просмотра: 02: 00: 05
    Качество фильма видео: DVD5
    Информация о видео: MPEG-2, 720x480@853x480 (NTSC 16: 9), ~4300 Кбит/сек
    Информация о звуке 1: AC3 5.1, 448 Кбит/сек Английский - оригинал
    Информация о звуке 2: AC3 5.1, 448 Кбит/сек Русский - дублированный
    DVDInfo:
    Title: The Huntsman. Winter;s War (2016) DVD5 NTSC Extended Cut
    Size: 4.37 Gb ( 4 581 188, 00 KBytes ) - DVD-5
    Enabled regions: 1, 2, 3, 4, 5, 6, 7, 8
    VTS_01 :
    Play Length: 02: 00: 05+{02: 00: 05}
    Video: NTSC 16: 9 (720x480) VBR, Auto Letterboxed
    Audio:
    English (Dolby AC3, 6 ch)
    Russian (Dolby AC3, 6 ch)
    Subtitles:
    English
    Russian
    Russian
    * Menus Information *
    VIDEO_TS Menu
    Video:
    NTSC 16: 9 (720x480) VBR
    Auto PanScan
    English Language Unit :
    Title Menu
    VTS_01 Menu
    Video:
    NTSC 16: 9 (720x480) VBR
    Auto Letterboxed
    Audio:
    Not specified (Dolby AC3, 2 ch)
    English Language Unit :
    Root Menu
    Subpicture Menu
    Audio Menu
    Angle menu
    Chapter (PTT) Menu
    MediaInfo:
    Общее
    Полное имя : G: ВидеоThe Huntsman. Winter;s War (2016) DVD5 NTSC Extended CutVIDEO_TSVTS_01_1.VOB
    Формат : MPEG-PS
    Размер файла : 1024 Мбайт
    Продолжительность : 26 м.
    Режим общего битрейта : Переменный
    Общий поток : 5305 Кбит/сек
    Видео
    Идентификатор : 224 (0xE0)
    Формат : MPEG Video
    Версия формата : Version 2
    Профиль формата : Main@Main
    Параметр BVOP формата : Да
    Параметр матрицы формата : Выборочная
    Параметр GOP формата : M=3, N=12
    Продолжительность : 26 м.
    Вид битрейта : Переменный
    Битрейт : 4304 Кбит/сек
    Максимальный битрейт : 7972 Кбит/сек
    Ширина : 720 пикселей
    Высота : 480 пикселей
    Соотношение сторон : 16: 9
    Частота кадров : 23, 976 (24000/1001) кадра/сек
    Цветовое пространство : YUV
    Субдискретизация насыщенности : 4: 2: 0
    Битовая глубина : 8 бит
    Тип развёртки : Прогрессивная
    Порядок развёртки : 2: 3 Pulldown
    Метод сжатия : С потерями
    Бит/(Пиксели*Кадры) : 0.519
    Временной код первого кадра : 00: 00: 00: 00
    Оригинал временного кода : Group of pictures t_head
    GOP, открыто/закрыто : Открыто
    GOP, открыто/закрыто на первом кадре : Закрыто
    Размер потока : 831 Мбайт (81%)
    Аудио #1
    Идентификатор : 189 (0xBD)-128 (0x80)
    Формат : AC-3
    Формат/Информация : Audio Coding 3
    Расширение режима : CM (complete main)
    Параметр Endianness формата : Big
    Режим смешивания : DVD-Video
    Продолжительность : 26 м.
    Вид битрейта : Постоянный
    Битрейт : 448 Кбит/сек
    Каналы : 6 каналов
    Расположение каналов : Front: L C R, Side: L R, LFE
    Частота : 48, 0 КГц
    Частота кадров : 31, 250 кадров/сек (1536 spf)
    Метод сжатия : С потерями
    Размер потока : 86, 5 Мбайт (8%)
    Аудио #2
    Идентификатор : 189 (0xBD)-129 (0x81)
    Формат : AC-3
    Формат/Информация : Audio Coding 3
    Расширение режима : CM (complete main)
    Параметр Endianness формата : Big
    Режим смешивания : DVD-Video
    Продолжительность : 26 м.
    Вид битрейта : Постоянный
    Битрейт : 448 Кбит/сек
    Каналы : 6 каналов
    Расположение каналов : Front: L C R, Side: L R, LFE
    Частота : 48, 0 КГц
    Частота кадров : 31, 250 кадров/сек (1536 spf)
    Метод сжатия : С потерями
    Размер потока : 86, 5 Мбайт (8%)
    Текст #1
    Идентификатор : 189 (0xBD)-32 (0x20)
    Формат : RLE
    Формат/Информация : Run-length encoding
    Режим смешивания : DVD-Video
    Текст #2
    Идентификатор : 189 (0xBD)-33 (0x21)
    Формат : RLE
    Формат/Информация : Run-length encoding
    Режим смешивания : DVD-Video
    Текст #3
    Идентификатор : 189 (0xBD)-34 (0x22)
    Формат : RLE
    Формат/Информация : Run-length encoding
    Режим смешивания : DVD-Video
    Меню
    Доп. информация:
    Исходник: Белоснежка и Охотник 2/The Huntsman: Winter;s War (2016) DVD9 | Расширенная версия | Custom
    Удалены: доп. материалы, английские комментарии и описание звуковая дорожка (в меню кнопки затёрты).
    Команды диска переписаны заново, оставлен один VTS.
    Видео сжато на 22, 5%
    Меню: статичное, недействующие кнопки затерты и закрыты.
    Обработка и сжатие: DVD ReMake Pro + DVD Rebuilder + CCE SP2 7 проходов + Работа с меню (Adobe PhotoShop и MuxMan).
    Скриншоты меню:

    Скриншоты:

    Залил: Саша 1992

    Онлайн видео Белоснежка и Охотник 2


    Размер скачиваемого торрента: 4.37 GB (4691136512 Bytes)

    Белоснежка и Охотник 2/The Huntsman: Winters War (2016) DVD5 | Расширенная версия
    загрузка...
    Рейтинг →
     (голосов: 1, оценка 5/5, голосовать можно 1 раз )

    Другие торренты по теме:

  • Белоснежка и охотник / Snow White and the Huntsman (2012) BDRip 720p | D | Расширенная версия торрент скачать бесплатно
  • Белоснежка и охотник / Snow White And The Huntsman (2012) BDRip 1080p от GORESEWAGE | Extended Cut торрент скачать бесплатно
  • Белоснежка и охотник / Snow White And The Huntsman (2012) BDRemux 1080p от GORESEWAGE | Extended Cut скачать через торрент бесплатно
  • Белоснежка и охотник / Snow White And The Huntsman (2012) BDRip 1080p | Extended | D, A торрент скачать бесплатно
  • Белоснежка и охотник / Snow White and the Huntsman (2012) BDRip 720p от Leonardo and Scarabey | Лицензия | Расширенная версия скачать через торрент бесплатно
  • Белоснежка и охотник / Snow White and the Huntsman торрент скачать бесплатно
  • Белоснежка и охотник / Snow White and the Huntsman (2012) BDRip-AVC от MediaClub | Extended | D, A скачать через торрент бесплатно
  • Белоснежка и Охотник 2 / The Huntsman: Winter's War (2016) скачать торрент бесплатно


    • Комментарии (0):

      Информация

      Информация

        Посетители, находящиеся в группе Гости, не могут оставлять комментарии в данной новости.

        ↓ Меню



        ↓ Опрос

        А Вы добавили сайт в закладки?
        Да
        Не


        Top 10 за неделю (Фильмы)