.
Авторизация | Регистрация
Хочешь лучшие торренты? Добавь свой email!
Добавить
» » Иллюзия обмана 2 / Now You See Me 2 (2016) BDRip 720p от Scarabey | US Transfer | Лицензия торрент скачать бесплатно




    Иллюзия обмана 2 / Now You See Me 2 (2016) BDRip 720p от Scarabey | US Transfer | Лицензия торрент скачать бесплатно

    Опубликовал: Админ | Дата: 3-09-2016, 05:00 | Просмотров: 47



    Создали в: 2016
    Снималось в: США, Китай, Великобритания, Канада
    Категория жанра: боевик, триллер, комедия, криминал, детектив, приключения
    Время просмотра: 02: 09: 29
    Перевод текста: Профессиональный (полное дублирование) Лицензия
    Субтитры: нет
    Главный режиссер: Джон М. Чу/Jon Chu

    Актеры
    Джесси Айзенберг, Марк Руффало, Вуди Харрельсон, Дэйв Франко, Дэниэл Рэдклифф, Лиззи Каплан, Джей Чоу, Санаа Лэтэн, Майкл Кейн, Морган Фриман
    Описание: Четыре всадника, команда лучших иллюзионистов мира, снова в сборе! Их магия стала еще совершеннее, а враги — опаснее. На сей раз им предстоит спасти свою репутацию и вывести на чистую воду жестокого техномагната…
    Качество фильма видео: BDRip 720p
    Тип видео видео: MKV
    Информация о видео: 1280х534, 23.976 fps, AVC ~8009 kbps avg
    Информация о звуке: 48 kHz, AC3 Dolby Digital, 3/2 (L, C, R, l, r) + LFE ch, ~640 kbps
    Релиз подготовил:
    АНОНСЫ МОИХ РАЗДАЧ!



    МедиаИнфо

    Now.You.See.Me.2.2016.720p_BDRip_usa_scarabey.org.mkv
    Формат : Matroska
    Версия формата : Version 4/Version 2
    Размер файла : 7, 99 Гбайт
    Продолжительность : 2 ч. 9 м.
    Общий поток : 8825 Кбит/сек
    Дата кодирования : UTC 2016-09-01 19: 03: 15
    Программа кодирования : mkvmerge v6.1.0 (;Old Devil;) built on Mar 4 2013 09: 10: 42
    Библиотека кодирования : libebml v1.3.0 + libmatroska v1.4.0
    Видео
    Идентификатор : 1
    Формат : AVC
    Формат/Информация : Advanced Video Codec
    Профиль формата : High@L4.1
    Параметр CABAC формата : Да
    Параметр ReFrames формата : 12 кадров
    Идентификатор кодека : V_MPEG4/ISO/AVC
    Продолжительность : 2 ч. 9 м.
    Битрейт : 8009 Кбит/сек
    Ширина : 1280 пикселей
    Высота : 534 пикселя
    Соотношение сторон : 2, 40: 1
    Режим частоты кадров : Постоянный
    Частота кадров : 23, 976 (24000/1001) кадра/сек
    Цветовое пространство : YUV
    Субдискретизация насыщенности : 4: 2: 0
    Битовая глубина : 8 бит
    Тип развёртки : Прогрессивная
    Бит/(Пиксели*Кадры) : 0.489
    Размер потока : 7, 25 Гбайт (91%)
    Библиотека кодирования : x264 core 148 r2705kMod 3f5ed56
    Настройки программы : cabac=1/ref=12/deblock=1: -3: -3/analyse=0x3: 0x113/me=umh/subme=11/psy=1/fade_compensate=0.00/psy_rd=1.00: 0.08/mixed_ref=1/me_range=32/chroma_me=1/trellis=2/8x8dct=1/cqm=0/deadzone=21, 11/fast_pskip=0/chroma_qp_offset=-4/threads=12/lookahead_threads=3/sliced_threads=0/nr=0/decimate=1/interlaced=0/bluray_compat=0/constrained_intra=0/fgo=0/bframes=12/b_pyramid=2/b_adapt=2/b_bias=0/direct=3/weightb=1/open_gop=0/weightp=2/keyint=230/keyint_min=23/scenecut=40/intra_refresh=0/rc_lookahead=40/rc=crf/mbtree=0/crf=16.8000/qcomp=0.60/qpmin=0/qpmax=69/qpstep=4/vbv_maxrate=50000/vbv_bufsize=62500/crf_max=0.0/nal_hrd=none/filler=0/ip_ratio=1.40/pb_ratio=1.30/aq=3: 0.80
    Язык : English
    Default : Да
    Forced : Нет
    Аудио
    Идентификатор : 2
    Формат : AC-3
    Формат/Информация : Audio Coding 3
    Расширение режима : CM (complete main)
    Параметр Endianness формата : Big
    Идентификатор кодека : A_AC3
    Продолжительность : 2 ч. 9 м.
    Вид битрейта : Постоянный
    Битрейт : 640 Кбит/сек
    Каналы : 6 каналов
    Расположение каналов : Front: L C R, Side: L R, LFE
    Частота : 48, 0 КГц
    Частота кадров : 31, 250 кадров/сек (1536 spf)
    Метод сжатия : С потерями
    Размер потока : 594 Мбайт (7%)
    Заголовок : Дубляж - Лицензия
    Язык : Russian
    Default : Да
    Forced : Нет
    Меню
    00: 00: 00.000 : en: 00: 00: 00.000
    00: 07: 05.133 : en: 00: 07: 05.133
    00: 16: 03.838 : en: 00: 16: 03.838
    00: 25: 29.570 : en: 00: 25: 29.570
    00: 33: 16.828 : en: 00: 33: 16.828
    00: 39: 57.645 : en: 00: 39: 57.645
    00: 48: 07.718 : en: 00: 48: 07.718
    00: 53: 34.711 : en: 00: 53: 34.711
    01: 03: 53.246 : en: 01: 03: 53.246
    01: 14: 00.561 : en: 01: 14: 00.561
    01: 20: 23.569 : en: 01: 20: 23.569
    01: 26: 37.400 : en: 01: 26: 37.400
    01: 32: 37.051 : en: 01: 32: 37.051
    01: 38: 46.837 : en: 01: 38: 46.837
    01: 48: 13.529 : en: 01: 48: 13.529
    01: 54: 04.921 : en: 01: 54: 04.921


    Онлайн видео Иллюзия обмана 2


    Размер скачиваемого торрента: 7.99 GB (8581280928 Bytes)

    Иллюзия обмана 2/Now You See Me 2 (2016) BDRip 720p от Scarabey | US Transfer | Лицензия
    загрузка...
    Рейтинг →
     (голосов: 1, оценка 5/5, голосовать можно 1 раз )

    Другие торренты по теме:

  • Иллюзия обмана / Now You See Me (2012) HDRip | D | Трейлер
  • Иллюзия обмана / Now You See Me (2013) HDRip | Звук с TS
  • Иллюзия обмана / Now You See Me (2013) BDRip 1080p | iTunes
  • Иллюзия обмана / Now You See Me (2013) Blu-Ray Remux 1080p | iTunes
  • Иллюзия обмана / Now You See Me (2013) HDRip | iTunes
  • Иллюзия обмана / Now You See Me (2013) BDRip 720p от INTERCINEMA | iTunes
  • Иллюзия обмана / Now You See Me (2013) BDRip-AVC от leonardo 59 Scarabey | iTunes Russia
  • Иллюзия обмана / Now You See Me (2013) HDRip от -=HD-NET=- | КПК | iTunes Russia


    • Комментарии (0):

      Информация

      Информация

        Посетители, находящиеся в группе Гости, не могут оставлять комментарии в данной новости.

        ↓ Меню



        ↓ Опрос

        А Вы добавили сайт в закладки?
        Да
        Не


        Top 10 за месяц (Фильмы)