.
Авторизация | Регистрация
» » Первый мститель: Противостояние / Captain America: Civil War (2016) HDRip | IMAX Edition | D | iTunes скачать торрент бесплатно




    Первый мститель: Противостояние / Captain America: Civil War (2016) HDRip | IMAX Edition | D | iTunes скачать торрент бесплатно

    Опубликовал: Админ | Дата: 3-09-2016, 05:01 | Просмотров: 45



    Разделившись, мы падём
    Детально о кино
    Русское название: Первый мститель: Противостояние
    Русское название в мировом прокате: Captain America: Civil War
    Создали в: 2016
    Категория жанра: Фантастика, боевик, приключения
    Главный режиссер: Энтони Руссо, Джо Руссо

    Актеры
    Крис Эванс, Роберт Дауни мл., Скарлетт Йоханссон, Себастьян Стэн, Энтони Маки, Дон Чидл, Джереми Реннер, Чэдвик Боузмэн, Пол Беттани, Элизабет Олсен

    Сюжет фильма

    Мстители под руководством Капитана Америки оказываются участниками разрушительного инцидента, имеющего международный масштаб. Эти события заставляют правительство задуматься над тем, чтобы начать регулировать действия всех людей с особыми способностями, введя Акт о регистрации супергероев, вынуждая их подчиняться ООН.
    Видя в этом договоре нарушение гражданских прав и плевок на всё, во что он верит, Стив Роджерс открыто восстаёт против нового режима, ведя за собой группу героев, поддерживающих его мнение. В свою очередь, Тони Старк видит смысл в новом договоре и становится во главе героев, поддерживающих его. Всё это приводит к неизбежному расколу Мстителей и войне между сторонами. Сражаясь друг с другом, Старк и Роджерс не знают о том, что таинственный Барон Земо уже строит свои собственные планы, воспользовавшись расколом величайших героев Земли.

    Снималось в: США, Германия
    Киностудия: Marvel Entertainment, Marvel Studios Inc., Studio Babelsberg, Vita-Ray Dutch Productions (III), Deluxe Digital Studios
    Время просмотра: 02: 27: 42
    Перевод текста: Профессиональный (полное дублирование)iTunes
    Файл
    Качество фильма: HDRip
    Кодек для видео: XviD
    Информация о видео: 720x384 (1, 85: 1), 23, 976 fps, XviD ~1594 Кbps avg, 0.240 bit/pixel
    Информация о звуке: 48 kHz, AC3, 6 ch, ~384.00 kbps avg | русский |Профессиональный (полное дублирование)iTunes
    Субтитры: Отсутствуют
    Семпл
    Инфо-файл
    Общее
    Полное имя : Captain.America.Civil.War.2016.D.HDRip.IMAX.21OOMB.avi
    Формат : AVI
    Формат/Информация : Audio Video Interleave
    Профиль формата : OpenDML
    Размер файла : 2, 05 Гбайт
    Продолжительность : 2 ч. 27 м.
    Общий поток : 1990 Кбит/сек
    Программа кодирования : VirtualDubMod 1.5.10.2 (build 2540/release)
    Формат оригинала/Имя : Movie
    Видео
    Идентификатор : 0
    Формат : MPEG-4 Visual
    Профиль формата : Advanced Simple@L5
    Параметр BVOP формата : 2
    Параметр QPel формата : Нет
    Параметр GMC формата : Без точки перехода
    Параметр матрицы формата : Выборочная
    Идентификатор кодека : XVID
    Идентификатор кодека/Подсказка : XviD
    Продолжительность : 2 ч. 27 м.
    Битрейт : 1594 Кбит/сек
    Ширина : 720 пикселей
    Высота : 384 пикселя
    Соотношение сторон : 1, 85: 1
    Частота кадров : 23, 976 (24000/1001) кадра/сек
    Цветовое пространство : YUV
    Субдискретизация насыщенности : 4: 2: 0
    Битовая глубина : 8 бит
    Тип развёртки : Прогрессивная
    Метод сжатия : С потерями
    Бит/(Пиксели*Кадры) : 0.240
    Размер потока : 1, 64 Гбайт (80%)
    Библиотека кодирования : XviD 1.2.1 (UTC 2008-12-04)
    Аудио
    Идентификатор : 1
    Формат : AC-3
    Формат/Информация : Audio Coding 3
    Расширение режима : CM (complete main)
    Параметр Endianness формата : Big
    Идентификатор кодека : 2000
    Продолжительность : 2 ч. 27 м.
    Вид битрейта : Постоянный
    Битрейт : 384 Кбит/сек
    Каналы : 6 каналов
    Расположение каналов : Front: L C R, Side: L R, LFE
    Частота : 48, 0 КГц
    Частота кадров : 31, 250 кадров/сек (1536 spf)
    Метод сжатия : С потерями
    Размер потока : 406 Мбайт (19%)
    Выравнивание : Разделение по промежуткам
    Продолжительность промежутка : 42 мс. (1, 00 видеокадр)
    Время предзагрузки промежутка : 500 мс.
    Скриншоты

    Залил: admiralkz

    Онлайн видео Первый мститель: Противостояние


    Размер скачиваемого торрента: 2.05 GB (2204643328 Bytes)

    Первый мститель: Противостояние/Captain America: Civil War (2016) HDRip | IMAX Edition | D | iTunes
    загрузка...
    Рейтинг →
     (голосов: 1, оценка 5/5, голосовать можно 1 раз )

    Другие торренты по теме:

  • OST - Капитан Америка: Первый Мститель / Captain America: The First Avenger (2011) MP3 торрент скачать бесплатно
  • Первый мститель / Captain America: The First Avenger (2011) BDRip 1080p от Youtracker | Лицензия торрент скачать бесплатно
  • Первый мститель / Captain America: The First Avenger (2011) BDRip 720p от leonardo 59 Scarabey | Лицензия скачать через торрент бесплатно
  • Первый мститель: Другая война / Captain America: The Winter Soldier (2014) HD 1080p | Трейлер торрент скачать бесплатно
  • Первый мститель: Другая война / Captain America: The Winter Soldier (2014) DCPrip | 3D | Трейлер скачать через торрент бесплатно
  • Первый мститель: Другая война / Captain America: The Winter Soldier (2014) DCPrip 2K | Трейлер скачать через торрент бесплатно
  • Первый мститель: Другая война (2014) торрент скачать бесплатно
  • OST - Первый мститель: Другая война / Captain America: The Winter Soldier (2014) MP3 торрент скачать бесплатно


    • Комментарии (0):

      Информация

      Информация

        Посетители, находящиеся в группе Гости, не могут оставлять комментарии в данной новости.

        ↓ Меню



        ↓ Опрос

        А Вы добавили сайт в закладки?
        Да
        Не


        Top 10 за неделю (Фильмы)