.
Авторизация | Регистрация
Хочешь лучшие торренты? Добавь свой email!
Добавить
» » Иллюзия обмана 2 / Now You See Me 2 (2016) BDRip-HEVC от qusi555 | Лицензия торрент скачать бесплатно




    Иллюзия обмана 2 / Now You See Me 2 (2016) BDRip-HEVC от qusi555 | Лицензия торрент скачать бесплатно

    Опубликовал: Админ | Дата: 3-09-2016, 05:01 | Просмотров: 78



    Детально о кино
    Русское название: Иллюзия обмана 2
    Русское название в мировом прокате: Now You See Me 2
    Снималось в: США
    Киностудия: Lionsgate, Summit Entertainment
    Создали в: 2016
    Категория жанра: Триллер, криминал
    Главный режиссер: Джон М. Чу

    Актеры
    Джесси Айзенберг, Лиззи Каплан, Дэниэл Рэдклифф, Марк Руффало, Морган Фримен, Майкл Кейн, Вуди Харрельсон, Дэйв Франко, Санаа Лэтэн

    Сюжет фильма

    Труппа уличных фигляров и скоморохов из уездного шапито под названием Четыре всадника достигла невиданных вершин мастерства в насаждении массового психоза. Демонстрируемые ими фокусы вышли на новый уровень технологического прогресса, оставляя после себя множество бесчувственных, временно не подлежащих идентификации тел, застывших в причудливых позах. Но враги не дремлют и засылают в глубокий тыл Всадникам злобного техноманьяка.
    Файл
    Время просмотра: 02: 09: 30
    Перевод текста: Дублированный | Лицензия
    Кодек для видео: HeVC/x265
    Источник: BDREMUX
    Качество фильма: BDRip
    Информация о видео: 1344x560, 2453 kb/s, 23.976 (24000/1001) FPS
    Информация о звуке1: 48 kHz, AC3, 5.1, 384 Kbps | Дублированный | Blu-Ray
    Информация о звуке2: 48 kHz, AC3, 5.1, 384 Kbps | Оригинал
    Субтитры подготовлены: нету
    Сэмпл: http://sendfile.su/1261646
    Media ?nfo

    General
    File size : 2.91 GiB
    Duration : 2 h 9 min
    Overall bit rate : 3 220 kb/s
    Movie name : Rip by qusi555
    Encoded date : UTC 2016-08-31 19: 05: 03
    Writing library : libebml v1.3.3 + libmatroska v1.4.4
    Video
    ID : 1
    Format : HEVC
    Format/Info : High Efficiency Video Coding
    Format profile : Main@L3.1@Main
    Codec ID : V_MPEGH/ISO/HEVC
    Duration : 2 h 9 min
    Bit rate : 2 453 kb/s
    Width : 1 344 pixels
    Height : 560 pixels
    Display aspect ratio : 2.40: 1
    Frame rate mode : Constant
    Frame rate : 23.976 (24000/1001) FPS
    Color space : YUV
    Chroma subsampling : 4: 2: 0
    Bit depth : 8 bits
    Bits/(Pixel*Frame) : 0.136
    Stream size : 2.21 GiB (76%)
    Title : Rip by qusi555
    Writing library : x265 1.9+54-291beccb6760: WindowsGCC 5.3.064 bit 8bit+10bit+12bit
    Encoding settings : wpp/ctu=64/min-cu-size=8/max-tu-size=32/tu-intra-depth=1/tu-inter-depth=1/me=2/subme=7/merange=92/no-rect/no-amp/max-merge=2/temporal-mvp/no-early-skip/rdpenalty=0/no-tskip/no-tskip-fast/strong-intra-smoothing/no-lossless/no-cu-lossless/no-constrained-intra/no-fast-intra/open-gop/no-temporal-layers/interlace=0/keyint=250/min-keyint=23/scenecut=40/rc-lookahead=20/lookahead-slices=0/bframes=4/bframe-bias=0/b-adapt=2/ref=3/limit-refs=3/no-limit-modes/weightp/no-weightb/aq-mode=1/qg-size=32/aq-strength=1.00/cbqpoffs=0/crqpoffs=0/rd=3/psy-rd=2.00/rdoq-level=0/psy-rdoq=0.00/no-rd-refine/signhide/deblock/sao/no-sao-non-deblock/b-pyramid/cutree/no-intra-refresh/rc=2/pass/bitrate=2453/qcomp=0.60/qpmin=0/qpmax=51/qpstep=4/cplxblur=20.0/qblur=0.5/ipratio=1.40/pbratio=1.30
    Default : Yes
    Forced : No
    Audio #1
    ID : 2
    Format : AC-3
    Format/Info : Audio Coding 3
    Mode extension : CM (complete main)
    Format settings, Endianness : Big
    Codec ID : A_AC3
    Duration : 2 h 9 min
    Bit rate mode : Constant
    Bit rate : 384 kb/s
    Channel(s) : 6 channels
    Channel positions : Front: L C R, Side: L R, LFE
    Sampling rate : 48.0 kHz
    Frame rate : 31.250 FPS (1536 spf)
    Compression mode : Lossy
    Stream size : 355 MiB (12%)
    Title : RUS 5.1
    Language : Russian
    Default : Yes
    Forced : No
    Audio #2
    ID : 3
    Format : AC-3
    Format/Info : Audio Coding 3
    Mode extension : CM (complete main)
    Format settings, Endianness : Big
    Codec ID : A_AC3
    Duration : 2 h 9 min
    Bit rate mode : Constant
    Bit rate : 384 kb/s
    Channel(s) : 6 channels
    Channel positions : Front: L C R, Side: L R, LFE
    Sampling rate : 48.0 kHz
    Frame rate : 31.250 FPS (1536 spf)
    Compression mode : Lossy
    Stream size : 355 MiB (12%)
    Title : EN 5.1
    Language : English
    Default : No
    Forced : No

    Discover The Quality With qusi555 Encodes


    Залил: _qusi555_

    Онлайн видео Иллюзия обмана 2


    Размер скачиваемого торрента: 2.91 GB (3124464278 Bytes)

    Иллюзия обмана 2/Now You See Me 2 (2016) BDRip-HEVC от qusi555 | Лицензия
    загрузка...
    Рейтинг →
     (голосов: 1, оценка 3/5, голосовать можно 1 раз )

    Другие торренты по теме:



      Комментарии (0):

      Информация

      Информация

        Посетители, находящиеся в группе Гости, не могут оставлять комментарии в данной новости.

        ↓ Меню



        ↓ Опрос

        А Вы добавили сайт в закладки?
        Да
        Не


        Top 10 за месяц (Фильмы)