.
Авторизация | Регистрация
» » Игры киллеров / Assassination Games (2011) HDRip от Portablius | D скачать торрент бесплатно




    Игры киллеров / Assassination Games (2011) HDRip от Portablius | D скачать торрент бесплатно

    Опубликовал: Админ | Дата: 4-09-2016, 05:00 | Просмотров: 56



    Детально о кино
    Русское название: Игры киллеров
    Русское название в мировом прокате: Assassination Games
    Создали в: 2011
    Категория жанра: Боевик, триллер
    Главный режиссер: Эрни Барбараш

    Актеры
    Жан-Клод Ван Дамм, Скотт Эдкинс, Айван Кэй, Валентин Теодосию, Элин Пэнк, Кевин Чэпмен, Сербан Целеа, Майкл Хиггс, Кристофер Ван Варенберг, Мария Каран, Бьянка Бри, Эндрю Френч, Аттила Арпа, Мариоара Стериан, Джордж Ремис, Юлия Люмэнаре, Флорин Басуйок, Сорин Кристи, Йоана Павелеску, Анхель Кристиан, Салахадин Х. Безтаут, Релю Поалеланги, Мария-Антуанетта Тудор, Лоредана Гроуза, Клаудиу Трандафир, Бой Превос

    Сюжет фильма
    Роланд Флинт и Винсент Брэйзил — отъявленные наёмники, мастера восточных единоборств и гуру военного искусства. Винсент специализируется на холодном оружии, в то время, как Роланд является первоклассным стрелком. Они не знакомы друг другу, но вскоре им предстоит создать непростой альянс и колоритный тандем. В один прекрасный день двум профессионалам поручили задание — любой ценой уничтожить наркокартель, заполонившую всю округу товаром, а вместе с тем — убрать её всесильного босса, покрываемого управлением по борьбе с наркотиками. Однако, за простой, с первого взгляда, миссией кроется предательство, подстава и тёмные проделки влиятельных лиц и воротил преступного мира, объявивших охоту на самих наёмников. Теперь крутым ребятам придётся на собственной шкуре ощутить, что значит быть жертвой и постоянно оглядываться назад. Война начинается и кровопролитной битвы не избежать…

    Снималось в: США, Румыния
    Киностудия: Mediapro Studios, Motion Picture Corporation of America (MPCA), Rodin Entertainment
    Время просмотра: 01: 39: 52
    Перевод текста: Дубляж (Лицензия)
    Субтитры: Нет
    Семпл
    Файл
    Кодек для видео: XviD
    Качество фильма: HDRip
    Информация о видео: 624x352 (1.77: 1), 23.976 fps, XviD build 73 ~908 kbps avg, 0.17 bit/pixel
    Информация о звуке: 48 kHz, MPEG Layer 3, 2 ch, ~128.00 kbps avg
    MediaInfo
    Общее
    Полное имя : Assassination.Games.2011.HDRip.ot.Portablius.avi
    Формат : AVI
    Формат/Информация : Audio Video Interleave
    Размер файла : 747 Мбайт
    Продолжительность : 1 ч. 39 м.
    Общий поток : 1046 Кбит/сек
    Программа кодирования : VirtualDubMod 1.5.10.3 | www.virtualdub-fr.org || (build 2550/release)
    Библиотека кодирования : VirtualDubMod build 2550/release
    Видео
    Идентификатор : 0
    Формат : MPEG-4 Visual
    Профиль формата : Advanced Simple@L5
    Параметр BVOP формата : 1
    Параметр QPel формата : Нет
    Параметр GMC формата : Без точки перехода
    Параметр матрицы формата : Выборочная
    Идентификатор кодека : XVID
    Идентификатор кодека/Подсказка : XviD
    Продолжительность : 1 ч. 39 м.
    Битрейт : 909 Кбит/сек
    Ширина : 624 пикселя
    Высота : 352 пикселя
    Соотношение сторон : 16: 9
    Частота кадров : 23, 976 (23976/1000) кадра/сек
    Цветовое пространство : YUV
    Субдискретизация насыщенности : 4: 2: 0
    Битовая глубина : 8 бит
    Тип развёртки : Прогрессивная
    Метод сжатия : С потерями
    Бит/(Пиксели*Кадры) : 0.173
    Размер потока : 649 Мбайт (87%)
    Библиотека кодирования : XviD 73
    Аудио
    Идентификатор : 1
    Формат : MPEG Audio
    Версия формата : Version 1
    Профиль формата : Layer 3
    Идентификатор кодека : 55
    Идентификатор кодека/Подсказка : MP3
    Продолжительность : 1 ч. 39 м.
    Вид битрейта : Постоянный
    Битрейт : 128 Кбит/сек
    Каналы : 2 канала
    Частота : 48, 0 КГц
    Метод сжатия : С потерями
    Размер потока : 91, 4 Мбайт (12%)
    Выравнивание : Соединение по промежуткам
    Продолжительность промежутка : 42 мс. (1, 00 видеокадр)
    Время предзагрузки промежутка : 504 мс.
    Библиотека кодирования : LAME3.99r
    Залил: Evgen Portable

    Онлайн видео Игры киллеров


    Размер скачиваемого торрента: 747.37 MB (783677440 Bytes)


    Игры киллеров/Assassination Games (2011) HDRip от Portablius | D
    загрузка...
    Рейтинг →
     (голосов: 1, оценка 3/5, голосовать можно 1 раз )

    Другие торренты по теме:

  • Игры киллеров / Assassination Games (2011) BDRemux 1080p от MediaClub | D скачать через торрент бесплатно
  • Игры киллеров / Assassination Games (2011) BDRip 1080p от MediaClub | D скачать через торрент бесплатно
  • Игры киллеров / Assassination Games (2011) BDRip-AVC от Leo.pard | D торрент скачать бесплатно
  • Игры киллеров / Assassination Games (2011) HDRip от Sanjar NeoJet | КПК | Лицензия торрент скачать бесплатно
  • Игры киллеров / Assassination Games (2011) BDRip-AVC от HELLYWOOD | Лицензия скачать через торрент бесплатно
  • Игры киллеров / Assassination Games (2011) BDRip от Rulya74 | Лицензия торрент скачать бесплатно
  • Игры киллеров / Assassination Games (2011) BDRip 720p от MediaClub | Лицензия торрент скачать бесплатно
  • Игры киллеров / Оружие / Assassination Games (2011) BDRip от HQCLUB | Лицензия скачать через торрент бесплатно


    • Комментарии (0):

      Информация

      Информация

        Посетители, находящиеся в группе Гости, не могут оставлять комментарии в данной новости.

        ↓ Меню



        ↓ Опрос

        А Вы добавили сайт в закладки?
        Да
        Не


        Top 10 за неделю (Фильмы)