.
Авторизация | Регистрация
Хочешь лучшие торренты? Добавь свой email!
Добавить
» » Кикбоксер / Kickboxer (2016) WEB-DLRip-AVC от NNMClub | L2 торрент скачать бесплатно




    Кикбоксер / Kickboxer (2016) WEB-DLRip-AVC от NNMClub | L2 торрент скачать бесплатно

    Опубликовал: Админ | Дата: 5-09-2016, 05:00 | Просмотров: 33



    Создали в: США
    Категория жанра: Боевик
    Главный режиссер: Джон Стокуэлл
    Актеры: Ален Мусси, Жорж Сен-Пьер, Т.Дж. Сторм, Мэттью Зифф, Сэм Медина, Дэйв Батиста, Сью-Линн Ансари, Даррен Шалави, Джина Карано, Жан-Клод Ван Дамм ...

    Описание фильма
    Сюжет разворачивается вокруг братьев из калифорнийской династии бойцов Дэвида и Курта Слоан. Дэвид погибает в одном из поединков в Гонконге. Узнав об этом, Курт едет в Таиланд к своему наставнику, с помощью которого рассчитывает обрести силу воли, чтобы отомстить за смерть брата.

    Релиз подготовил: K.E.N(NNM-CLUB)
    Время просмотра: 01: 30: 18
    Качество фильма видео: WEB-DLRip-AVC Сэмпл
    Перевод текста: Любительский (двухголосый, закадровый) СПД
    Субтитры: Английские
    Информация о видео: AVC, 1024x428 (2.35: 1), 23.976 fps, 2 696 Kbps (0.257 bit/pixel)
    Информация о звуке #1: AC-3, 48.0 KHz, 2 ch, 384 Kbps, CBR (Russian)
    Информация о звуке #2: AC-3, 48.0 KHz, 6 ch, 384 Kbps, CBR (English)
    MediaInfo:
    Формат : Matroska
    Версия формата : Version 2
    Размер файла : 2, 19 Гбайт
    Продолжительность : 1 ч. 30 м.
    Общий поток : 3462 Кбит/сек
    Название фильма : Kickboxer.Vengeance.2016
    Дата кодирования : UTC 2016-09-04 18: 42: 41
    Программа кодирования : mkvmerge v5.3.0 (;I could have danced;) built on Feb 9 2012 10: 38: 07
    Библиотека кодирования : libebml v1.2.3 + libmatroska v1.3.0
    Attachment : Yes
    Видео
    Идентификатор : 1
    Формат : AVC
    Формат/Информация : Advanced Video Codec
    Профиль формата : High@L4.1
    Параметр CABAC формата : Да
    Параметр ReFrames формата : 11 кадров
    Идентификатор кодека : V_MPEG4/ISO/AVC
    Продолжительность : 1 ч. 30 м.
    Битрейт : 2696 Кбит/сек
    Ширина : 1024 пикселя
    Высота : 428 пикселей
    Соотношение сторон : 2, 40: 1
    Режим частоты кадров : Постоянный
    Частота кадров : 23, 976 кадра/сек
    Цветовое пространство : YUV
    Субдискретизация насыщенности : 4: 2: 0
    Битовая глубина : 8 бит
    Тип развёртки : Прогрессивная
    Бит/(Пиксели*Кадры) : 0.257
    Размер потока : 1, 66 Гбайт (76%)
    Библиотека кодирования : x264 core 146 r2538 121396c
    Настройки программы : cabac=1/ref=11/deblock=1: -3: -3/analyse=0x3: 0x133/me=umh/subme=10/psy=1/psy_rd=1.00: 0.10/mixed_ref=1/me_range=32/chroma_me=1/trellis=2/8x8dct=1/cqm=0/deadzone=21, 11/fast_pskip=0/chroma_qp_offset=-3/threads=12/lookahead_threads=2/sliced_threads=0/nr=0/decimate=0/interlaced=0/bluray_compat=0/constrained_intra=0/bframes=8/b_pyramid=2/b_adapt=2/b_bias=0/direct=3/weightb=1/open_gop=0/weightp=2/keyint=240/keyint_min=23/scenecut=40/intra_refresh=0/rc_lookahead=40/rc=2pass/mbtree=0/bitrate=2696/ratetol=1.0/qcomp=0.60/qpmin=0/qpmax=69/qpstep=4/cplxblur=20.0/qblur=0.5/vbv_maxrate=50000/vbv_bufsize=62500/nal_hrd=none/filler=0/ip_ratio=1.40/pb_ratio=1.30/aq=1: 0.70
    Default : Да
    Forced : Нет
    Аудио #1
    Идентификатор : 2
    Формат : AC-3
    Формат/Информация : Audio Coding 3
    Расширение режима : CM (complete main)
    Параметр Endianness формата : Big
    Идентификатор кодека : A_AC3
    Продолжительность : 1 ч. 30 м.
    Вид битрейта : Постоянный
    Битрейт : 384 Кбит/сек
    Каналы : 2 канала
    Расположение каналов : Front: L R
    Частота : 48, 0 КГц
    Битовая глубина : 16 бит
    Метод сжатия : С потерями
    Размер потока : 248 Мбайт (11%)
    Язык : Russian
    Default : Нет
    Forced : Нет
    Аудио #2
    Идентификатор : 3
    Формат : AC-3
    Формат/Информация : Audio Coding 3
    Расширение режима : CM (complete main)
    Параметр Endianness формата : Big
    Идентификатор кодека : A_AC3
    Продолжительность : 1 ч. 30 м.
    Вид битрейта : Постоянный
    Битрейт : 384 Кбит/сек
    Каналы : 6 каналов
    Расположение каналов : Front: L C R, Side: L R, LFE
    Частота : 48, 0 КГц
    Битовая глубина : 16 бит
    Метод сжатия : С потерями
    Размер потока : 248 Мбайт (11%)
    Язык : English
    Default : Нет
    Forced : Нет
    Текст
    Идентификатор : 4
    Формат : UTF-8
    Идентификатор кодека : S_TEXT/UTF8
    Идентификатор кодека/Информация : UTF-8 Plain Text
    Язык : English
    Default : Нет
    Forced : Нет
    Меню
    00: 00: 00.000 : en: 1
    00: 10: 06.481 : en: 2
    00: 19: 35.174 : en: 3
    00: 30: 09.057 : en: 4
    00: 39: 51.013 : en: 5
    00: 50: 26.857 : en: 6
    01: 00: 37.092 : en: 7
    01: 08: 16.509 : en: 8
    01: 15: 04.500 : en: 9
    01: 24: 54.965 : en: 10
    Скриншоты



    Онлайн видео Кикбоксер


    Размер скачиваемого торрента: 2.19 GB (2347298225 Bytes)

    Кикбоксер/Kickboxer (2016) WEB-DLRip-AVC от NNMClub | L2
    загрузка...
    Рейтинг →
     (голосов: 1, оценка 3/5, голосовать можно 1 раз )

    Другие торренты по теме:

  • Кикбоксер / Kickboxer (1989) HDRip от Scarabey | Р
  • Кикбоксер / Kickboxer / 1989 / ПМ, ПД, СТ / BDRip
  • Кикбоксер / Kickboxer (2016) WEB-DLRip от AleksSin | L
  • Кикбоксер / Kickboxer Vengeance / 2016 / ПМ / WEB-DLRip (AVC)
  • Кикбоксер / Kickboxer Vengeance / 2016 / ПМ / HDRip
  • Кикбоксер / Kickboxer Vengeance (2016) HDRip от MegaPeer | iTunes
  • Кикбоксер / Kickboxer: Vengeance (2016) BDRip от MegaPeer | iTunes
  • Кикбоксер / Kickboxer Vengeance (2016) BDRip-AVC от OlLanDGroup | iTunes


    • Комментарии (0):

      Информация

      Информация

        Посетители, находящиеся в группе Гости, не могут оставлять комментарии в данной новости.

        ↓ Меню



        ↓ Опрос

        А Вы добавили сайт в закладки?
        Да
        Не


        Top 10 за месяц (Фильмы)