.
Авторизация | Регистрация
» » Человек родился (1956) DVDRip от New-Team скачать торрент бесплатно




    Человек родился (1956) DVDRip от New-Team скачать торрент бесплатно

    Опубликовал: Админ | Дата: 5-09-2016, 05:01 | Просмотров: 72



    Снималось в: СССР
    Создали в: Мосфильм
    Категория жанра: драма, мелодрама
    Создали в: 1956
    Время просмотра: 01: 30: 07
    Перевод текста: Не требуется
    Субтитры подготовлены: нет
    Оригинальная аудиодорожка: русский
    Главный режиссер: Василий Ордынский

    Актеры

    Ольга Бган, Владимир Гусев, Владимир Андреев, Александр Ханов, Наталья Серебрянникова, Нина Дорошина, Григорий Абрикосов, Валентин Маклашин, Виктор Терехов, Иван Кузнецов, Лидия Драновская...
    Полный список актёров
    Описание:
    Надя Смирнова приехала в Москву поступать в институт. Экзамены она не сдала, но решила остаться в столице. Судьба свела ее с молодым человеком из интеллигентной семьи, которого Надя полюбила. Вскоре она родила ребенка, но Виталий, оказавшийся подлецом, бросил ее.
    Гордая девушка уходит из негостеприимного дома и решает больше никогда туда не возвращаться. На ее руках - грудной ребенок, ей негде жить. На автобусной остановке Надя случайно знакомится с молодым студентом, который помогает ей устроиться. Юноша готов ради нее на все, но девушка больше не верит людям...



    Источник: DVD5 R5
    Качество фильма видео: DVDRip
    Тип видео видео: AVI
    Информация о видео: 688x512 (4: 3), 25 fps, XviD ~ 1528 kbps avg, 0.174 bit/pixel
    Информация о звуке: 48 kHz, Dolby Digital AC3 2.0, 192 kbps
    Раздача от:
    MediaInfo

    Общее
    Полное имя : Chelovek.rodilsya.1956.DVDRip_New-team_by_AVP_Studio.avi
    Формат : AVI
    Формат/Информация : Audio Video Interleave
    Размер файла : 1, 09 Гбайт
    Продолжительность : 1 ч. 30 м.
    Общий поток : 1730 Кбит/сек
    Программа кодирования : VirtualDubMod 1.5.10.3 | www.virtualdub-fr.org || (build 2550/release)
    Библиотека кодирования : VirtualDubMod build 2550/release
    Видео
    Идентификатор : 0
    Формат : MPEG-4 Visual
    Профиль формата : Advanced Simple@L5
    Параметр BVOP формата : 1
    Параметр QPel формата : Нет
    Параметр GMC формата : Без точки перехода
    Параметр матрицы формата : Выборочная
    Идентификатор кодека : XVID
    Идентификатор кодека/Подсказка : XviD
    Продолжительность : 1 ч. 30 м.
    Битрейт : 1528 Кбит/сек
    Ширина : 688 пикселей
    Высота : 512 пикселей
    Соотношение сторон : 4: 3
    Частота кадров : 25, 000 кадров/сек
    Цветовое пространство : YUV
    Субдискретизация насыщенности : 4: 2: 0
    Битовая глубина : 8 бит
    Тип развёртки : Прогрессивная
    Метод сжатия : С потерями
    Бит/(Пиксели*Кадры) : 0.174
    Размер потока : 985 Мбайт (88%)
    Библиотека кодирования : XviD 1.2.1 (UTC 2008-12-04)
    Аудио
    Идентификатор : 1
    Формат : AC-3
    Формат/Информация : Audio Coding 3
    Расширение режима : CM (complete main)
    Параметр Endianness формата : Big
    Идентификатор кодека : 2000
    Продолжительность : 1 ч. 30 м.
    Вид битрейта : Постоянный
    Битрейт : 192 Кбит/сек
    Каналы : 2 канала
    Расположение каналов : Front: L R
    Частота : 48, 0 КГц
    Частота кадров : 31, 250 кадров/сек (1536 spf)
    Метод сжатия : С потерями
    Размер потока : 124 Мбайт (11%)
    Выравнивание : Разделение по промежуткам
    Продолжительность промежутка : 40 мс. (1, 00 видеокадр)
    Время предзагрузки промежутка : 500 мс

    Скриншоты



    Залил: AVPStudio

    Онлайн видео Человек родился (1956) DVDRip от New


    Размер скачиваемого торрента: 1.09 GB (1169129472 Bytes)

    Человек родился (1956) DVDRip от New-Team
    загрузка...
    Рейтинг →
     (голосов: 1, оценка 5/5, голосовать можно 1 раз )

    Другие торренты по теме:



      Комментарии (0):

      Информация

      Информация

        Посетители, находящиеся в группе Гости, не могут оставлять комментарии в данной новости.

        ↓ Меню



        ↓ Опрос

        А Вы добавили сайт в закладки?
        Да
        Не


        Top 10 за неделю (Фильмы)