.
Авторизация | Регистрация
» » Поиск / The Search (2014) HDRip-AVC | Ю.Живов скачать торрент бесплатно




    Поиск / The Search (2014) HDRip-AVC | Ю.Живов скачать торрент бесплатно

    Опубликовал: Админ | Дата: 6-09-2016, 05:01 | Просмотров: 53



    Детально о кино
    Русское название: Поиск
    Русское название в мировом прокате: The Search
    Создали в: 2014
    Категория жанра: драма, военный
    Главный режиссер: Мишель Хазанавичус

    Актеры
    Беренис Бежо, Аннетт Бенинг, Максим Емельянов, Абдул Халим Мамуциев, Зухра Дуишвили, Лела Багакашвили, Юрий Цурило, Антон Долгов, Мамука Мачитидзе, Русудан Пареулидзе

    Сюжет фильма
    В фильме переплетаются две судьбы - русского парня, у которого милиция обнаружила наркотики и отправила в военкомат, откуда он пошёл воевать на Вторую чеченскую войну, и чеченского мальчика, потерявшего в войне родных. Сотрудница гуманитарного центра (Беренис Бежо) подружилась с мальчиком и хочет забрать ребенка с собой, чтобы увезти его из раздираемого войной региона. Но мальчика ищет его мать, которая полна решимости вернуть сына любой ценой...

    Снималось в: Франция, Грузия/Canal+ fr, Cin?, France 3 Cin?ma, France T?l?visions, La Classe Am?ricaine, La Petite Reine, NJJ Capital, Orange Studio, Sarke Studio, Westart Invest, Wild Bunch
    Время просмотра: 02: 14: 34
    Перевод текста: Авторский (одноголосый закадровый) Юрий Живов
    Файл
    Качество фильма: HDRip-AVC
    Тип видео: MKV
    Информация о видео: AVC, 2700 Kb/s, 1024x548
    Информация о звуке: Russian: AC3, 448 Kb/s (6 ch), French: AC3, 256 Kb/s (2 ch)
    Субтитры: Russian, English

    Релиз подготовил:
    MediaInfo:
    Format : Matroska
    Format version : Version 4/Version 2
    File size : 3.20 GiB
    Duration : 2 h 14 min
    Overall bit rate : 3 408 kb/s
    Movie name : Rip by basma4i
    Writing application : XviD4PSP 7.0.292 DAILY
    Writing library : Lavf57.41.100/Lavf57.41.100
    Cover : Yes
    Attachments : cover.jpg
    ENCODING_INFO : MATROSKA, WEBM MKV/H264 X264 VBR-2P 2700kbps Произвольный/AC3 AC3 CBR 448kbps/AAC-LC AC3 CBR 256kbps
    Video
    ID : 1
    Format : AVC
    Format/Info : Advanced Video Codec
    Format profile : Main@L4.1
    Format settings, CABAC : No
    Format settings, ReFrames : 11 frames
    Codec ID : V_MPEG4/ISO/AVC
    Bit rate : 2 700 kb/s
    Width : 1 024 pixels
    Height : 548 pixels
    Display aspect ratio : 1.85: 1
    Frame rate mode : Variable
    Original frame rate : 24.000 FPS
    Color space : YUV
    Chroma subsampling : 4: 2: 0
    Bit depth : 8 bits
    Scan type : Progressive
    Bits/(Pixel*Frame) : 0.200
    Writing library : x264 core 148 r2705M 3f5ed56
    Encoding settings : cabac=0/ref=12/deblock=1: -3: -3/analyse=0x1: 0x131/me=umh/subme=11/psy=1/psy_rd=1.00: 0.20/mixed_ref=1/me_range=32/chroma_me=1/trellis=2/8x8dct=0/cqm=0/deadzone=21, 11/fast_pskip=1/chroma_qp_offset=-3/threads=11/lookahead_threads=1/sliced_threads=0/nr=0/decimate=0/interlaced=0/bluray_compat=0/constrained_intra=0/bframes=10/b_pyramid=1/b_adapt=1/b_bias=8/direct=3/weightb=1/open_gop=0/weightp=2/keyint=240/keyint_min=24/scenecut=40/intra_refresh=0/rc_lookahead=40/rc=2pass/mbtree=1/bitrate=2700/ratetol=1.0/qcomp=0.60/qpmin=0/qpmax=69/qpstep=4/cplxblur=20.0/qblur=0.5/vbv_maxrate=31250/vbv_bufsize=62500/nal_hrd=none/filler=0/ip_ratio=1.40/aq=1: 1.00
    Default : Yes
    Forced : No
    DURATION : 02: 14: 32.089000000
    Audio #1
    ID : 2
    Format : AC-3
    Format/Info : Audio Coding 3
    Mode extension : CM (complete main)
    Format settings, Endianness : Big
    Codec ID : A_AC3
    Duration : 2 h 14 min
    Bit rate mode : Constant
    Bit rate : 448 kb/s
    Channel(s) : 6 channels
    Channel positions : Front: L C R, Side: L R, LFE
    Sampling rate : 48.0 kHz
    Frame rate : 31.250 FPS (1536 spf)
    Bit depth : 32 bits
    Compression mode : Lossy
    Delay relative to video : 1 ms
    Stream size : 431 MiB (13%)
    Language : Russian
    Default : Yes
    Forced : No
    DURATION : 02: 14: 32.033000000
    Audio #2
    ID : 3
    Format : AC-3
    Format/Info : Audio Coding 3
    Mode extension : CM (complete main)
    Format settings, Endianness : Big
    Codec ID : A_AC3
    Duration : 2 h 14 min
    Bit rate mode : Constant
    Bit rate : 256 kb/s
    Channel(s) : 2 channels
    Channel positions : Front: L R
    Sampling rate : 44.1 kHz
    Frame rate : 28.711 FPS (1536 spf)
    Bit depth : 32 bits
    Compression mode : Lossy
    Stream size : 246 MiB (8%)
    Default : No
    Forced : No
    DURATION : 02: 14: 34.275000000
    Text #1
    ID : 4
    Format : UTF-8
    Codec ID : S_TEXT/UTF8
    Codec ID/Info : UTF-8 Plain Text
    Language : Russian
    Default : Yes
    Forced : No
    DURATION : 02: 10: 14.006000000
    Text #2
    ID : 5
    Format : UTF-8
    Codec ID : S_TEXT/UTF8
    Codec ID/Info : UTF-8 Plain Text
    Language : English
    Default : No
    Forced : No
    DURATION : 02: 10: 15.006000000
    Скриншоты

    Размер скачиваемого торрента: 3.20 GB (3439901667 Bytes)

    Поиск/The Search (2014) HDRip-AVC | Ю.Живов
    загрузка...
    Рейтинг →
     (голосов: 1, оценка 5/5, голосовать можно 1 раз )

    Другие торренты по теме:

  • Горец: В поисках мести / Highlander: The Search for Vengeance (2007) DVDRip | Режиссёрская версия / Directors Cut торрент скачать бесплатно
  • BBC - В поисках Сатаны / BBC - Search for Satan (2011) HDTVRip-AVC от Тorrent-Хzona торрент скачать бесплатно
  • Звездный путь 3: В поисках Спока / Star Trek III: The Search for Spock (1984) BDRip от HQCLUB торрент скачать бесплатно
  • В поисках Санта Лапуса / The Search for Santa Paws (2010) BDRip от HQ-ViDEO скачать через торрент бесплатно
  • В поисках потерпевших кораблекрушение / Дети капитана Гранта / In Search of the Castaways (1962) DVDRip-AVC от F-Torrents скачать через торрент бесплатно
  • В поисках одноглазого Джимми / The Search for One-eye Jimmy (1994) HDRip Brazzass торрент скачать бесплатно
  • Путешествие Гектора в поисках счастья / Hector and the Search for Happiness (2014) BDRip 720p | Чистый звук скачать через торрент бесплатно
  • Путешествие Гектора в поисках счастья / Hector and the Search for Happiness (2014) BDRip-AVC от MediaClub | D | Чистый звук торрент скачать бесплатно


    • Комментарии (0):

      Информация

      Информация

        Посетители, находящиеся в группе Гости, не могут оставлять комментарии в данной новости.

        ↓ Меню



        ↓ Опрос

        А Вы добавили сайт в закладки?
        Да
        Не


        Top 10 за неделю (Фильмы)