.
Авторизация | Регистрация
Хочешь лучшие торренты? Добавь свой email!
Добавить




Бесаме (1989) DVB от AND03AND | Р2 торрент скачать бесплатно

Опубликовал: Админ | Дата: 6-09-2016, 18:28 | Просмотров: 78



Детально о кино
Русское название: Бесаме
Создали в: 1989
Категория жанра: драма
Главный режиссер: Нино Ахвледиани

Актеры
Давид Габуния, Реваз Табукашвили, Нугзар Цомая, Кахи Кавсадзе, Георгий (Гоги) Харабадзе, Мурман Джинория, Гизо Жордания, Нино Коридзе, Бека Джгубурия, Жорж Девдариани, Важа Апрасидзе, Михаил Лобжанидзе, Гоча Георгадзе, Отар Багратиони, Берта Хапава, Ладо Габашвили, Гоги Миротадзе, Хосе Мария Рио де Беиестер, Каха Чхаидзе

Сюжет фильма

Действие фильма происходит в Испании. Ректор Академии музыки во время путешествия встречает юного пастуха Бесаме, самозабвенно играющего на свирели. Ректор забирает пастушка с собой и устраивает в Академию. Увлеченный музыкант своей тупостью и рассеяностью раздражает учителей естественных наук — и вскоре оказывается в специальном пансионе для трудновоспитуемых, где воспитатель Рексач частенько поколачивает своих подопечных и заставляет их доносить друг на друга. Вскоре Бесаме приходит к выводу, что на насилие надо отвечать насилием. Постепенно мальчик становится мужественным парнем, все реже вспоминающем о своей свирели...
Доп. информация:
Сценарист: Нино Ахвледиани
Оператор: Ломер Ахвледиани
Композитор: Вахтанг Кахидзе
Художник: Важа Джалагания
Создали в: Грузия-фильм, Мигель Санчес Инфанте (Испания)
Премьера: октябрь 1990 (Москва)
Постер из коллекции советских киноплакатов коллеги tokarevamarina .
Запись потока *.tsс наземного цифрового телеканала Беларусь 3.
Во время показа финальных титров происходит показ анонса следующей передачи - видно на последнем скрине. А также во время показа появляется баннер оповещения о трансляции фильма.

Благодарность: за помощь с недостающим материалом Bartimeyse .Большое спасибо!
Снималось в: СССР, Испания
Киностудия: Грузия-фильм, Мигель Санчес Инфанте (Испания)
Время просмотра: 01: 33: 29
Перевод текста: профессиональный (двухголосый закадровый)
Файл
Кодек для видео: AVC (H264)
Качество фильма: DVB
Информация о видео: MPEG4 Video (H264) 720(785)x576 (49: 36) 25fps, 2 267 Kbps
Информация о звуке: MPEG Audio 48000Hz stereo 256kbps
Семпл
MediaInfo

General
ID : 1 (0x1)
Complete name : D: Новая земля 2Художественные фильмыБесаме (1989)Бесаме (1989).ts
Format : MPEG-TS
File size : 1.74 GiB
Duration : 1h 33mn
Overall bit rate mode : Variable
Overall bit rate : 2 657 Kbps
Video
ID : 513 (0x201)
Menu ID : 1 (0x1)
Format : AVC
Format/Info : Advanced Video Codec
Format profile : Main@L3.0
Format settings, CABAC : Yes
Format settings, ReFrames : 4 frames
Format settings, GOP : M=4, N=24
Codec ID : 27
Duration : 1h 33mn
Bit rate : 2 267 Kbps
Width : 720 pixels
Height : 576 pixels
Display aspect ratio : 4: 3
Frame rate : 25.000 fps
Standard : PAL
Color space : YUV
Chroma subsampling : 4: 2: 0
Bit depth : 8 bits
Scan type : MBAFF
Scan order : Top Field First
Bits/(Pixel*Frame) : 0.219
Stream size : 1.48 GiB (85%)
Color primaries : BT.601 PAL
Transfer characteristics : BT.470 System B, BT.470 System G
Matrix coefficients : BT.601
Color range : Limited
Audio
ID : 514 (0x202)
Menu ID : 1 (0x1)
Format : MPEG Audio
Format version : Version 1
Format profile : Layer 2
Codec ID : 3
Duration : 1h 33mn
Bit rate mode : Constant
Bit rate : 256 Kbps
Channel(s) : 2 channels
Sampling rate : 48.0 KHz
Compression mode : Lossy
Stream size : 171 MiB (10%)
Language : English

Скриншоты

Залил: AND03AND

Онлайн видео Бесаме (1989) DVB от AND03AND


Размер скачиваемого торрента: 1.74 GB (1863226264 Bytes)

Бесаме (1989) DVB от AND03AND | Р2
загрузка...
Рейтинг →
 (голосов: 1, оценка 5/5, голосовать можно 1 раз )

Другие торренты по теме:

  • Борис Жердин - Бесаме Мучо


    • Комментарии (0):

      Информация

      Информация

        Посетители, находящиеся в группе Гости, не могут оставлять комментарии в данной новости.

        ↓ Меню



        ↓ Опрос

        А Вы добавили сайт в закладки?
        Да
        Не


        Top 10 за месяц (Фильмы)