.
Авторизация | Регистрация
» » До встречи с тобой / Me Before You (2016) BDRemux 1080p от ExKinoRay | D скачать торрент бесплатно




    До встречи с тобой / Me Before You (2016) BDRemux 1080p от ExKinoRay | D скачать торрент бесплатно

    Опубликовал: Админ | Дата: 7-09-2016, 05:00 | Просмотров: 69



    Детально о кино
    Русское название: До встречи с тобой
    Русское название в мировом прокате: Me Before You
    Создали в: 2016
    Категория жанра: Драма, мелодрама, экранизация
    Главный режиссер: Теа Шэррок

    Актеры
    Сэм Клафлин, Эмилия Кларк, Ванесса Кирби, Эйлин Данвуди, Пабло Рэйбоулд, Гэбриэлль Дауни, Саманта Спиро, Брендан Койл, Дженна Коулман
    О фильме:
    По сюжету одноимённого романа Джоджо Мойес. Лу Кларк знает, сколько шагов от автобусной остановки до ее дома. Она знает, что ей очень нравится работа в кафе и что, скорее всего, она не любит своего бойфренда Патрика. Но Лу не знает, что вот-вот потеряет свою работу и что в ближайшем будущем ей понадобятся все силы, чтобы преодолеть свалившиеся на нее проблемы.
    Официальный сайт
    Снималось в: Великобритания
    Киностудия: Metro-Goldwyn-Mayer (MGM), New Line Cinema
    Время просмотра: 01: 50: 14
    Перевод текста: Дублированный
    Файл
    Кодек для видео: MPEG-4
    Качество фильма: BDRemux 1080p
    Информация о видео: 1920x1080, 27.9 Mbit/s, 23.976 fps
    Информация о звуке:
    Информация о звуке #01: 48 kHz, AC3, 5.1, 448 Kbps | Дублированный |
    Информация о звуке #02: 48 kHz, DTS-HD MA, 5.1, 3510 kbps | Оригинал |
    Субтитры: Русские, английские

    MI
    General
    Unique ID : 224657362467349043129810485966082666321 (0xA9036F25210159AEB0613C6D1B0FEF51)
    Complete name : G: VideoMe.Before.You.2016.BDREMUX.1080p.ExKinoRay.mkv
    Format : Matroska
    Format version : Version 4/Version 2
    File size : 24.5 GiB
    Duration : 1 h 50 min
    Overall bit rate mode : Variable
    Overall bit rate : 31.7 Mb/s
    Movie name : ***селезень***
    Encoded date : UTC 2016-09-06 15: 25: 02
    Writing application : mkvmerge v8.3.0 (;Over the Horizon;) 64bit
    Writing library : libebml v1.3.1 + libmatroska v1.4.2
    Video
    ID : 1
    Format : AVC
    Format/Info : Advanced Video Codec
    Format profile : High@L4.1
    Format settings, CABAC : Yes
    Format settings, ReFrames : 2 frames
    Format settings, GOP : M=1, N=10
    Codec ID : V_MPEG4/ISO/AVC
    Duration : 1 h 50 min
    Bit rate mode : Variable
    Bit rate : 27.9 Mb/s
    Width : 1 920 pixels
    Height : 1 080 pixels
    Display aspect ratio : 16: 9
    Frame rate mode : Constant
    Frame rate : 23.976 (24000/1001) FPS
    Color space : YUV
    Chroma subsampling : 4: 2: 0
    Bit depth : 8 bits
    Scan type : Progressive
    Bits/(Pixel*Frame) : 0.561
    Stream size : 21.5 GiB (88%)
    Title : ***селезень***
    Language : English
    Default : Yes
    Forced : No
    Audio #1
    ID : 2
    Format : AC-3
    Format/Info : Audio Coding 3
    Mode extension : CM (complete main)
    Format settings, Endianness : Big
    Codec ID : A_AC3
    Duration : 1 h 50 min
    Bit rate mode : Constant
    Bit rate : 448 kb/s
    Channel(s) : 6 channels
    Channel positions : Front: L C R, Side: L R, LFE
    Sampling rate : 48.0 kHz
    Frame rate : 31.250 FPS (1536 spf)
    Compression mode : Lossy
    Stream size : 353 MiB (1%)
    Title : DUB
    Language : Russian
    Default : Yes
    Forced : No
    Audio #2
    ID : 3
    Format : DTS
    Format/Info : Digital Theater Systems
    Format profile : MA/Core
    Mode : 16
    Format settings, Endianness : Big
    Codec ID : A_DTS
    Duration : 1 h 50 min
    Bit rate mode : Variable/Constant
    Bit rate : 3 510 kb/s/1 509 kb/s
    Channel(s) : 6 channels
    Channel positions : Front: L C R, Side: L R, LFE
    Sampling rate : 48.0 kHz
    Frame rate : 93.750 FPS (512 spf)
    Bit depth : 24 bits
    Compression mode : Lossless/Lossy
    Stream size : 2.70 GiB (11%)
    Title : Original
    Language : English
    Default : No
    Forced : No
    Text #1
    ID : 4
    Format : UTF-8
    Codec ID : S_TEXT/UTF8
    Codec ID/Info : UTF-8 Plain Text
    Duration : 1 h 50 min
    Bit rate : 105 b/s
    Count of elements : 1634
    Stream size : 84.9 KiB (0%)
    Title : Full
    Language : Russian
    Default : No
    Forced : No
    Text #2
    ID : 5
    Format : UTF-8
    Codec ID : S_TEXT/UTF8
    Codec ID/Info : UTF-8 Plain Text
    Duration : 1 h 45 min
    Bit rate : 63 b/s
    Count of elements : 1640
    Stream size : 49.0 KiB (0%)
    Title : Full
    Language : English
    Default : No
    Forced : No
    Menu
    00: 00: 00.000 : en: Chapter 01
    00: 05: 23.281 : en: Chapter 02
    00: 10: 12.987 : en: Chapter 03
    00: 15: 53.202 : en: Chapter 04
    00: 20: 13.546 : en: Chapter 05
    00: 23: 41.462 : en: Chapter 06
    00: 28: 51.229 : en: Chapter 07
    00: 33: 30.383 : en: Chapter 08
    00: 39: 37.208 : en: Chapter 09
    00: 45: 05.286 : en: Chapter 10
    00: 49: 43.105 : en: Chapter 11
    00: 53: 26.954 : en: Chapter 12
    00: 58: 40.392 : en: Chapter 13
    01: 02: 42.467 : en: Chapter 14
    01: 08: 22.598 : en: Chapter 15
    01: 12: 51.075 : en: Chapter 16
    01: 17: 35.401 : en: Chapter 17
    01: 20: 58.270 : en: Chapter 18
    01: 26: 11.500 : en: Chapter 19
    01: 31: 42.247 : en: Chapter 20
    Скриншоты

    Релиз подготовил: Автор релиза:

    Онлайн видео До встречи с тобой


    Размер скачиваемого торрента: 24.52 GB (26325635113 Bytes)

    До встречи с тобой/Me Before You (2016) BDRemux 1080p от ExKinoRay | D
    загрузка...
    Рейтинг →
     (голосов: 1, оценка 5/5, голосовать можно 1 раз )

    Другие торренты по теме:

  • До встречи с тобой скачать через торрент бесплатно
  • До встречи с тобой (2016) скачать торрент бесплатно
  • До встречи с тобой / Me Before You (2016) WEBRip 1080p | L скачать торрент бесплатно
  • До встречи с тобой / Me Before You (2016) BDRip 720p | Line скачать торрент бесплатно
  • До встречи с тобой / Me Before You (2016) HDRip от Scarabey | D скачать торрент бесплатно
  • До встречи с тобой / Me Before You (2016) BDRip-AVC от NNNB | D скачать торрент бесплатно
  • До встречи с тобой / Me Before You (2016) BDRip от ExKinoRay | D скачать торрент бесплатно
  • До встречи с тобой / Me Before You (2016) BDRip 720p от ExKinoRay | Лицензия скачать торрент бесплатно


    • Комментарии (0):

      Информация

      Информация

        Посетители, находящиеся в группе Гости, не могут оставлять комментарии в данной новости.

        ↓ Меню



        ↓ Опрос

        А Вы добавили сайт в закладки?
        Да
        Не


        Top 10 за неделю (Фильмы)