.
Авторизация | Регистрация
» » По следу / Skiptrace (2016) WEB-DLRip от Portablius | L скачать торрент бесплатно




    По следу / Skiptrace (2016) WEB-DLRip от Portablius | L скачать торрент бесплатно

    Опубликовал: Админ | Дата: 8-09-2016, 05:00 | Просмотров: 87



    Детально о кино
    Русское название: По следу
    Русское название в мировом прокате: Skiptrace
    Создали в: 2016
    Категория жанра: боевик, комедия
    Главный режиссер: Ренни Харлин

    Актеры
    Джеки Чан, Джонни Ноксвил, Бинбин Фань, Эрик Цан, Ив Торрес, Уинстон Чао, Ланьсинь Чжан, Майкл Вон, Джоэль Адриан, Пьер Бурдо

    Сюжет фильма
    Племянница честного полицейского попадает в неприятности и оказывается в руках у преступного синдиката. Во главе преступной группировки стоит человек, за которым протагонист следил около десяти лет. Чтобы спасти родственницу, копу приходится поймать болтливого американского игрока, с чьей помощью он может выручить девушку.

    Снималось в: Гонконг, США, Китай
    Время просмотра: 01: 47: 54
    Перевод текста: Любительский (многоголосый, закадровый) Parovoz Production
    Субтитры: Нет
    Семпл
    Файл
    Кодек для видео: XviD
    Качество фильма: WEB-DLRip
    Информация о видео: 704x288 (2.44: 1), 23.976 fps, XviD build 73 ~827 kbps avg, 0.17 bit/pixel
    Информация о звуке: 48 kHz, MPEG Layer 3, 2 ch, ~128.00 kbps avg
    MediaInfo
    Общее
    Полное имя : Skiptrace.2016.L.WEB-DLRip.ot.Portablius.avi
    Формат : AVI
    Формат/Информация : Audio Video Interleave
    Размер файла : 744 Мбайт
    Продолжительность : 1 ч. 47 м.
    Общий поток : 965 Кбит/сек
    Программа кодирования : VirtualDubMod 1.5.10.3 | www.virtualdub-fr.org || (build 2550/release)
    Библиотека кодирования : VirtualDubMod build 2550/release
    Видео
    Идентификатор : 0
    Формат : MPEG-4 Visual
    Профиль формата : Advanced Simple@L5
    Параметр BVOP формата : 1
    Параметр QPel формата : Нет
    Параметр GMC формата : Без точки перехода
    Параметр матрицы формата : Выборочная
    Идентификатор кодека : XVID
    Идентификатор кодека/Подсказка : XviD
    Продолжительность : 1 ч. 47 м.
    Битрейт : 828 Кбит/сек
    Ширина : 704 пикселя
    Высота : 288 пикселей
    Соотношение сторон : 2, 40: 1
    Частота кадров : 23, 976 (23976/1000) кадра/сек
    Цветовое пространство : YUV
    Субдискретизация насыщенности : 4: 2: 0
    Битовая глубина : 8 бит
    Тип развёртки : Прогрессивная
    Метод сжатия : С потерями
    Бит/(Пиксели*Кадры) : 0.170
    Размер потока : 638 Мбайт (86%)
    Библиотека кодирования : XviD 73
    Аудио
    Идентификатор : 1
    Формат : MPEG Audio
    Версия формата : Version 1
    Профиль формата : Layer 3
    Идентификатор кодека : 55
    Идентификатор кодека/Подсказка : MP3
    Продолжительность : 1 ч. 47 м.
    Вид битрейта : Постоянный
    Битрейт : 128 Кбит/сек
    Каналы : 2 канала
    Частота : 48, 0 КГц
    Метод сжатия : С потерями
    Размер потока : 98, 6 Мбайт (13%)
    Выравнивание : Соединение по промежуткам
    Продолжительность промежутка : 42 мс. (1, 00 видеокадр)
    Время предзагрузки промежутка : 504 мс.
    Библиотека кодирования : LAME3.99r
    Залил: Evgen Portable

    Онлайн видео По следу


    Размер скачиваемого торрента: 743.50 MB (779618304 Bytes)


    По следу/Skiptrace (2016) WEB-DLRip от Portablius | L
    загрузка...
    Рейтинг →
     (голосов: 1, оценка 5/5, голосовать можно 1 раз )

    Другие торренты по теме:

  • По следу / Skiptrace (2016) CAMRip скачать торрент бесплатно
  • По следу / Skiptrace (2016) WEB-DL 1080p | L скачать торрент бесплатно
  • По следу / Skiptrace (2016) WEB-DLRip от Generalfilm | КПК скачать торрент бесплатно
  • По следу / Skiptrace (2016) WEB-DLRip от AleksSin | L скачать торрент бесплатно
  • По следу / Skiptrace (2016) WEB-DLRip-AVC | L скачать торрент бесплатно
  • По следу / Skiptrace (2016) WEB-DLRip от AleksSin | L | СПД скачать торрент бесплатно
  • По следу / Skiptrace (2016) WEB-DLRip | L скачать торрент бесплатно
  • По следу / Skiptrace / 2016 / ПМ / WEB-DLRip скачать торрент бесплатно


    • Комментарии (0):

      Информация

      Информация

        Посетители, находящиеся в группе Гости, не могут оставлять комментарии в данной новости.

        ↓ Меню



        ↓ Опрос

        А Вы добавили сайт в закладки?
        Да
        Не


        Top 10 за неделю (Фильмы)