.
Авторизация | Регистрация
» » Штамм / The Strain (2016) WEB-DL 720p, HDTV 720p | AlexFilm скачать торрент бесплатно




    Штамм / The Strain (2016) WEB-DL 720p, HDTV 720p | AlexFilm скачать торрент бесплатно

    Опубликовал: Админ | Дата: 8-09-2016, 14:29 | Просмотров: 56


    Штамм/The Strain
    3 сезон любимого сериала, 1-3 серии Создали в: 2016
    Снималось в: США
    Категория жанра: ужасы, фантастика, драма
    Время просмотра: 00: 45: 00
    Озвучание: профессиональное многоголосое закадровое (AlexFilm) Главный режиссёры: Гильермо дель Торо, Дэвид Семел, Кит Гордон, Питер Уэллер

    Актеры
    Кори Столл, Дэвид Брэдли, Джим Уотсон, Кевин Дюран, Миа Маэстро, Бен Хайленд, Джонатан Хайд, Рихард Заммель, Мигель Гомес, Натали Браун, Джек Кеси, Шон Эстин, Роберт Мэйллет, Хавьер Ботет, Фрэнсис Капра, Роджер Р. Кросс, Лесли Хоуп, Реджина Кинг, Мелани Меркоски, Дрю Нельсон... Описание: Прошло три недели после посадки злополучного рейса. Люди постепенно осознают угрозу нового вируса, правительство мобилизует войска, но вампиры, беспрестанно адаптируясь к новым угрозам со стороны ещё незаражённых, сдаваться не собираются. Релиз:
    Перевод текста: Константин Кривоногов
    Монтаж и сведение звука: Михаил Шорыгин
    Роли озвучивали:
    Евгения Тихонова
    Михаил Суслов
    Роман Сопко
    Андрей Стакионис
    Рустам Шайхиев

    Качество фильма: WEB-DL 720p
    Тип видео: MKV
    Информация о видео: 1280x718 (16: 9), 23.976 fps, MPEG-4 AVC ~3 811 kbps avg, 0.173 bit/pixel
    Информация о звуке Rus: 48 kHz, AC3 Dolby Digital, 3/2 (L, C, R, l, r) + LFE ch, ~384.00 kbps avg
    Информация о звуке Eng: 48 kHz, AC3 Dolby Digital, 3/2 (L, C, R, l, r) + LFE ch, ~384.00 kbps avg
    Субтитры: нет
    Скриншоты
    Рэп в исполнении героев сериала ;Штамм;: Вампиры! Бум.
    https: //vimeo.com/179166296
    MediaInfo
    Format : Matroska
    Format version : Version 4/Version 2
    File size : 1.40 GiB
    Duration : 42 min
    Overall bit rate : 4 672 kb/s
    Movie name : The Strain 3x01 @ AlexFilm
    Encoded date : UTC 2016-08-29 09: 37: 42
    Writing application : mkvmerge v7.1.0 (;Good Love;) 64bit built on Jul 27 2014 13: 06: 55
    Writing library : libebml v1.3.0 + libmatroska v1.4.1
    Video
    ID : 1
    Format : AVC
    Format/Info : Advanced Video Codec
    Format profile : High@L3.1
    Format settings, CABAC : No
    Format settings, ReFrames : 2 frames
    Codec ID : V_MPEG4/ISO/AVC
    Duration : 42 min
    Bit rate : 3 811 kb/s
    Width : 1 280 pixels
    Height : 718 pixels
    Display aspect ratio : 16: 9
    Frame rate mode : Constant
    Frame rate : 23.976 (24000/1001) FPS
    Color space : YUV
    Chroma subsampling : 4: 2: 0
    Bit depth : 8 bits
    Scan type : Progressive
    Bits/(Pixel*Frame) : 0.173
    Stream size : 1.14 GiB (82%)
    Language : English
    Default : Yes
    Forced : No
    Color range : Limited
    Color primaries : BT.709
    Transfer characteristics : BT.709
    Matrix coefficients : BT.709
    Audio #1
    ID : 2
    Format : AC-3
    Format/Info : Audio Coding 3
    Mode extension : CM (complete main)
    Format settings, Endianness : Big
    Codec ID : A_AC3
    Duration : 42 min
    Bit rate mode : Constant
    Bit rate : 384 kb/s
    Channel(s) : 6 channels
    Channel positions : Front: L C R, Side: L R, LFE
    Sampling rate : 48.0 kHz
    Frame rate : 31.250 FPS (1536 spf)
    Compression mode : Lossy
    Delay relative to video : 7 ms
    Stream size : 118 MiB (8%)
    Title : DD5.1 AlexFilm
    Language : Russian
    Default : Yes
    Forced : No
    Audio #2
    ID : 3
    Format : AC-3
    Format/Info : Audio Coding 3
    Mode extension : CM (complete main)
    Format settings, Endianness : Big
    Codec ID : A_AC3
    Duration : 42 min
    Bit rate mode : Constant
    Bit rate : 384 kb/s
    Channel(s) : 6 channels
    Channel positions : Front: L C R, Side: L R, LFE
    Sampling rate : 48.0 kHz
    Frame rate : 31.250 FPS (1536 spf)
    Compression mode : Lossy
    Delay relative to video : 7 ms
    Stream size : 118 MiB (8%)
    Title : DD5.1 Original
    Language : English
    Default : No
    Forced : No
    Внимание! Раздача ведётся путём добавления новых серий
    Внимание! Раздача ведётся путём добавления новых серий; при каждом добавлении создаётся новый торрент. Чтобы начать докачку новой серии, пользователям необходимо сделать следующее:
    (1) остановить скачивание,
    (2) удалить старый торрент у себя из клиента (старые серии удалять не надо),
    (3) скачать новый торрент и запустить его у себя в клиенте вместо старого, при этом указать клиенту путь в старую папку куда и должно происходить скачивание новых серий.
    Ваш клиент при этом должен произвести хеширование (проверку) старой папки (если не производит сам - помогите ему сделать это), и будет докачивать только те серии которых у вас ещё нет. Старые серии при этом не удаляются, а продолжают раздаваться!
    Eсли вы уже удалили старые серии, то предотвратить повторную закачку старых серий можно, отжав галочку в соответствующих местах при запуске нового торрента. По возможности, желательно не удалять старые серии как можно дольше чтобы релизёр не столько продолжал раздавать старые серии, а смог сконцентрироваться на новых.

    Размер скачиваемого торрента: 3.42 GB (3672963477 Bytes)

    Штамм/The Strain (2016) WEB-DL 720p, HDTV 720p | AlexFilm
    загрузка...
    Рейтинг →
     (голосов: 1, оценка 4/5, голосовать можно 1 раз )

    Другие торренты по теме:



      Комментарии (0):

      Информация

      Информация

        Посетители, находящиеся в группе Гости, не могут оставлять комментарии в данной новости.

        ↓ Меню



        ↓ Опрос

        А Вы добавили сайт в закладки?
        Да
        Не


        Top 10 за неделю (Фильмы)