.
Авторизация | Регистрация
Хочешь лучшие торренты? Добавь свой email!
Добавить
» » Смерть в три дня / In 3 Tagen bist du tot (2006) BDRemux 1080p | GER Transfer | Р2, Р торрент скачать бесплатно




    Смерть в три дня / In 3 Tagen bist du tot (2006) BDRemux 1080p | GER Transfer | Р2, Р торрент скачать бесплатно

    Опубликовал: Админ | Дата: 9-09-2016, 05:00 | Просмотров: 64



    Смерть в три дня / Dead in 3 Days / In 3 Tagen bist du tot
    Снималось в: Австрия
    Создали в: Allegro Film, Filmfonds Wien, ORF Film/Fernseh-Abkommen
    Создали в: 2006
    Категория жанра: ужасы, триллер
    Время просмотра: 01: 33: 18
    Главный режиссер: Андреас Прохаска
    Авторы сценария: Томас Баумм, Андреас Прохаска

    Актеры
    Сабрина Рейтер, Джулия Роза Стокл, Михаэль Штайнохер, Лоуренс Рапп, Надя Фогель, Юлиан Шарп, Андреас Киндль, Карл Фишер
    Описание: Несколько молодых людей в день окончания школы получают смс-сообщение, в котором говорится, что все они умрут в ближайшие 3 дня. Посчитав это сообщение глупой шуткой, они не обращают внимания на него, но вскоре предупреждение начинает сбываться — несколько человек гибнут. Только после этого друзья понимают, что всё происходящее неразрывно связано с одним трагическим происшествием, которое случилось с ними, когда они были ещё детьми…

    Перевод текста: Профессиональный (двухголосый) | Мьюзик-Трейд+ Профессиональный (многоголосый) | РТР
    Субтитры: английские
    Качество фильма: BDRemux 1080p
    Тип видео: МКV
    Информация о видео кодек: AVC
    Информация о звуке кодек: АС3 | DTS
    Информация о видео: 1920x1080 (16: 9), 25.000 fps, MPEG-4 AVC ~15.9 Мbps avg
    Информация о звуке №1: 48.0 kHz, AC3 Dolby Digital, 3/2 (L, C, R, l, r) + LFE ch, ~384 kbps | DVO
    Информация о звуке №2: 48.0 kHz, AC3 Dolby Digital, 2/0 (L, R) ch, ~192 kbps | МVO/ РТР
    Информация о звуке №3: 48.0 kHz, Digital Theater Systems Master Audio, 3/2 (L, C, R, l, r) + LFE ch, ~1964 kbps | GER
    Информация о звуке №4: 48.0 kHz, AC3 Dolby Digital, 2/0 (L, R) ch, ~192 kbps | GER/ Commentary
    Информация о звуке №5: 48.0 kHz, AC3 Dolby Digital, 2/0 (L, R) ch, ~192 kbps | GER/ Deive
    Тип видео субтитров: UTF-8 Plain Text
    Дата премьеры (мир): 21 июля 2006

    Релиз подготовил: flaSI-I
    BDRemux Info

    Уникальный идентификатор : 226116786783795467608476953530075091329 (0xAA1C8251BA16499498892B7524DE9181)
    Полное имя : In 3 Tagen bist du tot.2006.BDRemux.1080i.mkv
    Формат : Matroska
    Версия формата : Version 4/Version 2
    Размер файла : 12, 3 Гбайт
    Продолжительность : 1 ч. 33 м.
    Режим общего битрейта : Переменный
    Общий поток : 18, 8 Мбит/сек
    Дата кодирования : UTC 2016-09-03 10: 35: 45
    Программа кодирования : mkvmerge v9.4.0 (;Knurl;) 64bit
    Библиотека кодирования : libebml v1.3.4 + libmatroska v1.4.5
    Видео
    Идентификатор : 1
    Формат : AVC
    Формат/Информация : Advanced Video Codec
    Профиль формата : High@L4.1
    Параметр CABAC формата : Да
    Параметр ReFrames формата : 4 кадра
    Параметр GOP формата : M=3, N=24
    Идентификатор кодека : V_MPEG4/ISO/AVC
    Продолжительность : 1 ч. 33 м.
    Вид битрейта : Переменный
    Битрейт : 15, 9 Мбит/сек
    Максимальный битрейт : 24, 0 Мбит/сек
    Ширина : 1920 пикселей
    Высота : 1080 пикселей
    Соотношение сторон : 16: 9
    Режим частоты кадров : Постоянный
    Частота кадров : 25, 000 кадров/сек
    Стандарт вещания : PAL
    Цветовое пространство : YUV
    Субдискретизация насыщенности : 4: 2: 0
    Битовая глубина : 8 бит
    Тип развёртки : MBAFF
    Метод сохранения типа развёртки : Чередующиеся поля
    Порядок развёртки : Верхнее поле первое
    Бит/(Пиксели*Кадры) : 0.307
    Размер потока : 10, 3 Гбайт (84%)
    Язык : German
    Default : Да
    Forced : Нет
    Цветовой диапазон : Limited
    Основные цвета : BT.709
    Характеристики трансфера : BT.709
    Коэффициенты матрицы : BT.709
    Аудио #1
    Идентификатор : 2
    Формат : AC-3
    Формат/Информация : Audio Coding 3
    Расширение режима : CM (complete main)
    Параметр Endianness формата : Big
    Идентификатор кодека : A_AC3
    Продолжительность : 1 ч. 33 м.
    Вид битрейта : Постоянный
    Битрейт : 384 Кбит/сек
    Каналы : 6 каналов
    Расположение каналов : Front: L C R, Side: L R, LFE
    Частота : 48, 0 КГц
    Частота кадров : 31, 250 кадров/сек (1536 spf)
    Метод сжатия : С потерями
    Размер потока : 256 Мбайт (2%)
    Заголовок : DVO/Мьюзик-трейд
    Язык : Russian
    Default : Да
    Forced : Нет
    Аудио #2
    Идентификатор : 3
    Формат : AC-3
    Формат/Информация : Audio Coding 3
    Расширение режима : CM (complete main)
    Параметр Endianness формата : Big
    Идентификатор кодека : A_AC3
    Продолжительность : 1 ч. 33 м.
    Вид битрейта : Постоянный
    Битрейт : 192 Кбит/сек
    Каналы : 2 канала
    Расположение каналов : Front: L R
    Частота : 48, 0 КГц
    Частота кадров : 31, 250 кадров/сек (1536 spf)
    Метод сжатия : С потерями
    Размер потока : 128 Мбайт (1%)
    Заголовок : MVO/РТР
    Язык : Russian
    Default : Нет
    Forced : Нет
    Аудио #3
    Идентификатор : 4
    Формат : DTS
    Формат/Информация : Digital Theater Systems
    Профиль формата : MA/Core
    Режим : 16
    Параметр Endianness формата : Big
    Идентификатор кодека : A_DTS
    Продолжительность : 1 ч. 33 м.
    Вид битрейта : Переменный/Постоянный
    Битрейт : 1964 Кбит/сек/1509 Кбит/сек
    Каналы : 6 каналов
    Расположение каналов : Front: L C R, Side: L R, LFE
    Частота : 48, 0 КГц
    Частота кадров : 93, 750 кадра/сек (512 spf)
    Битовая глубина : 16 бит
    Метод сжатия : Без потерь/Lossy
    Размер потока : 1, 28 Гбайт (10%)
    Заголовок : Original
    Язык : German
    Default : Нет
    Forced : Нет
    Аудио #4
    Идентификатор : 5
    Формат : AC-3
    Формат/Информация : Audio Coding 3
    Расширение режима : CM (complete main)
    Параметр Endianness формата : Big
    Идентификатор кодека : A_AC3
    Продолжительность : 1 ч. 33 м.
    Вид битрейта : Постоянный
    Битрейт : 192 Кбит/сек
    Каналы : 2 канала
    Расположение каналов : Front: L R
    Частота : 48, 0 КГц
    Частота кадров : 31, 250 кадров/сек (1536 spf)
    Метод сжатия : С потерями
    Размер потока : 128 Мбайт (1%)
    Заголовок : Commentary
    Язык : German
    Default : Нет
    Forced : Нет
    Аудио #5
    Идентификатор : 6
    Формат : AC-3
    Формат/Информация : Audio Coding 3
    Расширение режима : CM (complete main)
    Параметр Endianness формата : Big
    Идентификатор кодека : A_AC3
    Продолжительность : 1 ч. 33 м.
    Вид битрейта : Постоянный
    Битрейт : 192 Кбит/сек
    Каналы : 2 канала
    Расположение каналов : Front: L R
    Частота : 48, 0 КГц
    Частота кадров : 31, 250 кадров/сек (1536 spf)
    Метод сжатия : С потерями
    Размер потока : 128 Мбайт (1%)
    Заголовок : Deive
    Язык : German
    Default : Нет
    Forced : Нет
    Текст
    Идентификатор : 7
    Формат : UTF-8
    Идентификатор кодека : S_TEXT/UTF8
    Идентификатор кодека/Информация : UTF-8 Plain Text
    Продолжительность : 1 ч. 27 м.
    Битрейт : 16 бит/сек
    Count of elements : 434
    Размер потока : 10, 7 Кбайт (0%)
    Заголовок : ENGLiSH
    Язык : English
    Default : Нет
    Forced : Нет
    Меню
    00: 00: 00.000 : en: 00: 00: 00.000
    00: 02: 47.440 : en: 00: 02: 47.440
    00: 06: 45.560 : en: 00: 06: 45.560
    00: 10: 12.320 : en: 00: 10: 12.320
    00: 15: 37.920 : en: 00: 15: 37.920
    00: 19: 21.720 : en: 00: 19: 21.720
    00: 22: 16.080 : en: 00: 22: 16.080
    00: 25: 43.040 : en: 00: 25: 43.040
    00: 27: 34.000 : en: 00: 27: 34.000
    00: 29: 51.560 : en: 00: 29: 51.560
    00: 35: 43.760 : en: 00: 35: 43.760
    00: 44: 56.560 : en: 00: 44: 56.560
    00: 51: 57.960 : en: 00: 51: 57.960
    00: 56: 20.480 : en: 00: 56: 20.480
    00: 59: 38.520 : en: 00: 59: 38.520
    01: 05: 22.080 : en: 01: 05: 22.080
    01: 09: 14.040 : en: 01: 09: 14.040
    01: 12: 14.560 : en: 01: 12: 14.560
    01: 18: 41.920 : en: 01: 18: 41.920
    01: 22: 29.440 : en: 01: 22: 29.440
    01: 26: 53.080 : en: 01: 26: 53.080
    01: 29: 30.000 : en: 01: 29: 30.000

    Скриншоты

    Залил: Zha-4k-e

    Онлайн видео Смерть в три дня


    Размер скачиваемого торрента: 12.25 GB (13157838203 Bytes)

    Смерть в три дня/In 3 Tagen bist du tot (2006) BDRemux 1080p | GER Transfer | Р2, Р
    загрузка...
    Рейтинг →
     (голосов: 1, оценка 4/5, голосовать можно 1 раз )

    Другие торренты по теме:

  • Смерть в три дня / In 3 Tagen bist du tot (2006) BDRip 1080p | Р, Р2
  • Смерть в три дня / In 3 Tagen bist du tot (2006) BDRip | Р2


    • Комментарии (0):

      Информация

      Информация

        Посетители, находящиеся в группе Гости, не могут оставлять комментарии в данной новости.

        ↓ Меню



        ↓ Опрос

        А Вы добавили сайт в закладки?
        Да
        Не


        Top 10 за месяц (Фильмы)