.
Авторизация | Регистрация
» » Книга легенд. Таинственный лес (2012) DVB от AND03AND скачать торрент бесплатно




    Книга легенд. Таинственный лес (2012) DVB от AND03AND скачать торрент бесплатно

    Опубликовал: Админ | Дата: 10-09-2016, 05:00 | Просмотров: 47



    Детально о кино
    Русское название: Книга легенд. Таинственный лес
    Создали в: 2012
    Категория жанра: фэнтези, комедия, приключения
    Главный режиссер: Ахат Ибраев

    Актеры
    Куан Лекеров, Алишер Хаиров, Айнур Ниязова, Даулет Абдыгапаров, Жанат (Жан) Байжанбаев, Гульнара Дусматова, Жанна Куанышева, Санжар Мадиев, Михаил Токарев, Айгуль Мукей, Азамат Ашимов, Фархат Абдраимов, Димаш Ахимов, Альфия Кунгужинова

    Сюжет фильма

    Баха и Таха — сыновья известного бизнесмена, хулиганы и любители приключений. Их жизнь полна проделок и неожиданных сюрпризов.
    Однажды, прочитав в книге о том, что Царица амазонок нуждается в помощи в борьбе против сил Зла, они решают отправиться в сказочный лес, чтобы выручить Царицу амазонок, а в обмен на эту помощь — оживить маму и вернуть внимание своего отца.
    Тем временем, злая мачеха, измученная выходками детей, нанимает двух бандитов для их похищения. Незадачливые похитители увозят хулиганов далеко в лес, где кроется портал в древний фантастический мир…
    Доп. информация:
    Сценарист: Ахат Ибраев
    Оператор: Александр Плотников
    Композитор: Никита Карев
    Художник: Аскар Искаков, Асель Шалабаева
    Продюсеры: Ахат Ибраев, Алия Мендыгожина (иcп.), Ермек Аманшаев
    Создали в: Казахфильм при участии Adigul films
    Афиша


    Запись потока *.tsс наземного цифрового телеканала Беларусь 3.
    Во время показа появляется баннер оповещения о трансляции фильма. А так же анонс во время трансляции финальных интертитров. Видно на скрине.
    Благодарность: за помощь с недостающим материалом Bartimeyse и PavelDAS .Обоим большое спасибо!
    Снималось в: Казахстан
    Киностудия: Казахфильм при участии Adigul films
    Время просмотра: 01: 19: 22
    Перевод текста: Не требуется
    Оригинальная аудиодорожка: русский
    Файл
    Кодек для видео: AVC (H264)
    Качество фильма: DVB
    Информация о видео: MPEG4 Video (H264) 720(785)x576 (4: 3) 25fps, 2 252 Kbps
    Информация о звуке: MPEG Audio 48000Hz stereo 256kbps
    Семпл
    MediaInfo

    General
    ID : 1 (0x1)
    Complete name : D: Новая земля 2Художественные фильмыКнига легенд. Таинственный лес (2012)Книга легенд. Таинственный лес (2012).ts
    Format : MPEG-TS
    File size : 1.46 GiB
    Duration : 1h 19mn
    Overall bit rate mode : Variable
    Overall bit rate : 2 641 Kbps
    Video
    ID : 801 (0x321)
    Menu ID : 1 (0x1)
    Format : AVC
    Format/Info : Advanced Video Codec
    Format profile : Main@L3.0
    Format settings, CABAC : Yes
    Format settings, ReFrames : 4 frames
    Codec ID : 27
    Duration : 1h 19mn
    Bit rate : 2 252 Kbps
    Width : 720 pixels
    Height : 576 pixels
    Display aspect ratio : 4: 3
    Frame rate : 25.000 fps
    Standard : PAL
    Color space : YUV
    Chroma subsampling : 4: 2: 0
    Bit depth : 8 bits
    Scan type : MBAFF
    Scan order : Top Field First
    Bits/(Pixel*Frame) : 0.217
    Stream size : 1.25 GiB (85%)
    Color primaries : BT.601 PAL
    Transfer characteristics : BT.470 System B, BT.470 System G
    Matrix coefficients : BT.601
    Color range : Limited
    Audio
    ID : 802 (0x322)
    Menu ID : 1 (0x1)
    Format : MPEG Audio
    Format version : Version 1
    Format profile : Layer 2
    Codec ID : 3
    Duration : 1h 19mn
    Bit rate mode : Constant
    Bit rate : 256 Kbps
    Channel(s) : 2 channels
    Sampling rate : 48.0 KHz
    Compression mode : Lossy
    Stream size : 145 MiB (10%)
    Language : English

    Скриншот c названием фильма



    Скриншоты

    Залил: AND03AND

    Онлайн видео Ловчий смерти


    Размер скачиваемого торрента: 1.46 GB (1572187600 Bytes)

    Книга легенд. Таинственный лес (2012) DVB от AND03AND
    загрузка...
    Рейтинг →
     (голосов: 1, оценка 4/5, голосовать можно 1 раз )

    Другие торренты по теме:



      Комментарии (0):

      Информация

      Информация

        Посетители, находящиеся в группе Гости, не могут оставлять комментарии в данной новости.

        ↓ Меню



        ↓ Опрос

        А Вы добавили сайт в закладки?
        Да
        Не


        Top 10 за неделю (Фильмы)