.
Авторизация | Регистрация
» » Втройне / 3faltig (2010) BDRemux 1080p | L1 скачать торрент бесплатно




    Втройне / 3faltig (2010) BDRemux 1080p | L1 скачать торрент бесплатно

    Опубликовал: Админ | Дата: 10-09-2016, 05:01 | Просмотров: 54



    Втройне / 3faltig
    Снималось в: ГерманияАвстрия
    Создали в: Falcom Media, Filmfonds Wien, MR Film, ORF, DFFF, FFA
    Создали в: 2010
    Категория жанра: комедия
    Время просмотра: 01: 32: 37
    Главный режиссер: Харальд Сихериц
    Авторы сценария: Мурмель Клаузен, Херман Бройер, Кристиан Трамиц

    Актеры
    Маттиас Швайгхёфер, Кристиан Трамиц, Роланд Дюрингер, Адела Нойхаузер, Альфред Дорфер, Джулия Хартманн, Михаель Швайгхефер
    Описание: Хадж, Святой Дух, пишет мюзикл, когда Иисус возвращается на землю, чтобы подготовиться к апокалипсису. Чтобы предотвратить это, Хадж пытается убедить его, что человечество стоит того, чтобы сохранить ему жизнь, и делает это при помощи красивой танцовщицы стриптиза...

    Перевод текста: Любительский (одноголосый, закадровый) | Andi999
    Субтитры: русские, немецкие
    Качество фильма: BDRemux 1080p
    Тип видео: МКV
    Информация о видео кодек: AVC
    Информация о звуке кодек: DTS
    Информация о видео: 1920x1080 (16: 9), 25.000 fps, MPEG-4 AVC ~22.0 Мbps avg
    Информация о звуке №1: 48.0 kHz, Digital Theater Systems Master Audio, 3/2 (L, C, R, l, r) + LFE ch, ~1965 kbps | RUS
    Информация о звуке №2: 48.0 kHz, Digital Theater Systems Master Audio, 3/2 (L, C, R, l, r) + LFE ch, ~1973 kbps | GER
    Тип видео субтитров: UTF-8 Plain Text
    Дата премьеры (мир): 21 октября 2010
    Релиз подготовил:
    Дополнительная информация: за материал, русские субтитры, работу со звуком и переводом - спасибо andre-asb, Andi999, МIG_88
    BDRemux Info

    Уникальный идентификатор : 210200025921185690116891192399909461527 (0x9E230D6B9C54ACACA9D999263CB19E17)
    Полное имя : 3faltig.2010.BDRemux.1080i_by_vedigo.mkv
    Формат : Matroska
    Версия формата : Version 4/Version 2
    Размер файла : 16, 5 Гбайт
    Продолжительность : 1 ч. 32 м.
    Общий поток : 25, 5 Мбит/сек
    Название фильма : 3faltig.2010.BDRemux.1080i_by_ vedigo
    Дата кодирования : UTC 2016-09-07 23: 53: 12
    Программа кодирования : mkvmerge v9.4.0 (;Knurl;) 64bit
    Библиотека кодирования : libebml v1.3.4 + libmatroska v1.4.5
    Видео
    Идентификатор : 1
    Формат : AVC
    Формат/Информация : Advanced Video Codec
    Профиль формата : High@L4.1
    Параметр CABAC формата : Да
    Параметр ReFrames формата : 4 кадра
    Идентификатор кодека : V_MPEG4/ISO/AVC
    Продолжительность : 1 ч. 32 м.
    Вид битрейта : Постоянный
    Битрейт : 22, 0 Мбит/сек
    Ширина : 1920 пикселей
    Высота : 1080 пикселей
    Соотношение сторон : 16: 9
    Режим частоты кадров : Постоянный
    Частота кадров : 25, 000 кадров/сек
    Стандарт вещания : PAL
    Цветовое пространство : YUV
    Субдискретизация насыщенности : 4: 2: 0
    Битовая глубина : 8 бит
    Тип развёртки : MBAFF
    Метод сохранения типа развёртки : Чередующиеся поля
    Порядок развёртки : Верхнее поле первое
    Бит/(Пиксели*Кадры) : 0.424
    Размер потока : 14, 0 Гбайт (85%)
    Заголовок : 3faltig.2010.BDRemux.1080i_by_ vedigo
    Default : Да
    Forced : Нет
    Цветовой диапазон : Limited
    Основные цвета : BT.709
    Характеристики трансфера : BT.709
    Коэффициенты матрицы : BT.709
    Аудио #1
    Идентификатор : 2
    Формат : DTS
    Формат/Информация : Digital Theater Systems
    Профиль формата : MA/Core
    Режим : 16
    Параметр Endianness формата : Big
    Идентификатор кодека : A_DTS
    Продолжительность : 1 ч. 32 м.
    Вид битрейта : Переменный/Постоянный
    Битрейт : 1965 Кбит/сек/1509 Кбит/сек
    Каналы : 6 каналов
    Расположение каналов : Front: L C R, Side: L R, LFE
    Частота : 48, 0 КГц
    Частота кадров : 93, 750 кадра/сек (512 spf)
    Битовая глубина : 16 бит
    Метод сжатия : Без потерь/Lossy
    Размер потока : 1, 27 Гбайт (8%)
    Заголовок : VO @ Andi999
    Язык : Russian
    Default : Да
    Forced : Нет
    Аудио #2
    Идентификатор : 3
    Формат : DTS
    Формат/Информация : Digital Theater Systems
    Профиль формата : MA/Core
    Режим : 16
    Параметр Endianness формата : Big
    Идентификатор кодека : A_DTS
    Продолжительность : 1 ч. 32 м.
    Вид битрейта : Переменный/Постоянный
    Битрейт : 1973 Кбит/сек/1509 Кбит/сек
    Каналы : 6 каналов
    Расположение каналов : Front: L C R, Side: L R, LFE
    Частота : 48, 0 КГц
    Частота кадров : 93, 750 кадра/сек (512 spf)
    Битовая глубина : 16 бит
    Метод сжатия : Без потерь/Lossy
    Размер потока : 1, 28 Гбайт (8%)
    Заголовок : Original
    Язык : German
    Default : Нет
    Forced : Нет
    Текст #1
    Идентификатор : 4
    Формат : UTF-8
    Идентификатор кодека : S_TEXT/UTF8
    Идентификатор кодека/Информация : UTF-8 Plain Text
    Продолжительность : 1 ч. 32 м.
    Битрейт : 98 бит/сек
    Count of elements : 1273
    Размер потока : 66, 2 Кбайт (0%)
    Заголовок : Subtitle rus @ МIG_88
    Язык : Russian
    Default : Нет
    Forced : Нет
    Текст #2
    Идентификатор : 5
    Формат : UTF-8
    Идентификатор кодека : S_TEXT/UTF8
    Идентификатор кодека/Информация : UTF-8 Plain Text
    Продолжительность : 1 ч. 32 м.
    Битрейт : 71 бит/сек
    Count of elements : 1362
    Размер потока : 48, 3 Кбайт (0%)
    Заголовок : Subtitle ger
    Язык : German
    Default : Нет
    Forced : Нет
    Меню
    00: 00: 00.000 : : Глава 01
    00: 09: 19.680 : : Глава 02
    00: 16: 52.320 : : Глава 03
    00: 20: 52.600 : : Глава 04
    00: 24: 39.400 : : Глава 05
    00: 29: 54.080 : : Глава 06
    00: 33: 07.520 : : Глава 07
    00: 38: 34.760 : : Глава 08
    00: 49: 05.280 : : Глава 09
    00: 58: 20.560 : : Глава 10
    01: 12: 47.760 : : Глава 11
    01: 19: 38.000 : : Глава 12
    01: 32: 37.280 : : Глава 13

    Скриншоты

    Залил: Zha-4k-e

    Онлайн видео Втройне


    Размер скачиваемого торрента: 16.53 GB (17744960070 Bytes)

    Втройне/3faltig (2010) BDRemux 1080p | L1
    загрузка...
    Рейтинг →
     (голосов: 1, оценка 4/5, голосовать можно 1 раз )

    Другие торренты по теме:

  • Втройне / 3faltig (2010) HDRip от FreeRutor | L1 скачать торрент бесплатно


    • Комментарии (0):

      Информация

      Информация

        Посетители, находящиеся в группе Гости, не могут оставлять комментарии в данной новости.

        ↓ Меню



        ↓ Опрос

        А Вы добавили сайт в закладки?
        Да
        Не


        Top 10 за неделю (Фильмы)