.
Авторизация | Регистрация
Хочешь лучшие торренты? Добавь свой email!
Добавить
» » Черепашки-ниндзя 2 / Teenage Mutant Ninja Turtles: Out of the Shadows (2016) BDRip 720p от ExKinoRay | Лицензия торрент скачать бесплатно




    Черепашки-ниндзя 2 / Teenage Mutant Ninja Turtles: Out of the Shadows (2016) BDRip 720p от ExKinoRay | Лицензия торрент скачать бесплатно

    Опубликовал: Админ | Дата: 11-09-2016, 05:00 | Просмотров: 15



    Детально о кино
    Русское название: Черепашки-ниндзя 2
    Русское название в мировом прокате: Teenage Mutant Ninja Turtles: Out of the Shadows
    Создали в: 2016
    Категория жанра: Фантастика, фэнтези, боевик, комедия, приключения
    Главный режиссер: Дэйв Грин

    Актеры
    Меган Фокс, Алан Ричсон, Уилл Арнетт, Стефен Фаррелли, Алессандра Амброзио, Брэд Гэррет, Тайлер Перри
    О фильме:
    Доблестная четверка пионеров в костяных бронежилетах продолжает исподтишка охранять общественный порядок в Нью-Йорке. Между тем, главный уголовный авторитет города по кличке Шреддер сбегает из-под стражи. Вместе со своей бандой Черная нога он начинает творить всяческие непотребства: топчет муравейники, поливает цветы в парке китайским супер-клеем, распевает гимн Советского Союза на японском языке и организует вторжение инопланетного мозга-желе, собирающегося красиво разбомбить человечество северным сиянием. Черепашкам и их боевой подруге Эйприл О’Нил вновь предстоит спасать всех людей доброй воли, заручившись неожиданной помощью фаната Пятницы 13-е - мстителя в хоккейной маске Кейси Джонса.

    Снималось в: США
    Киностудия: Gama Entertainment Partners, Nickelodeon Movies, Paramount Pictures, Platinum Dunes
    Время просмотра: 01: 52: 15
    Перевод текста: Дублированный | Лицензия Blu-Ray CEE
    Файл
    Кодек для видео: MPEG-4
    Качество фильма: BDRip 720p
    Информация о видео: 1280x534, 6926 Kbit/s, 23.976 fps
    Информация о звуке:
    Информация о звуке #01: 48 kHz, AC3, 5.1, 640 Kbps | Дублированный, Blu-Ray CEE |
    Информация о звуке #02: 48 kHz, AC3, 5.1, 640 kbps | Оригинал |
    Субтитры: Русские (forced, full), английские (full, SDH)

    MI
    General
    Unique ID : 207069413930013535282239246182220605192 (0x9BC81E55100909ADA32EA36C7AA8A708)
    Complete name : G: VideoНовая папкаTeenage.Mutant.Ninja.Turtles.Out.Of.The.Shadows.2016.D.BDRip.720p.ExKinoRay.mkv
    Format : Matroska
    Format version : Version 4/Version 2
    File size : 6.43 GiB
    Duration : 1 h 52 min
    Overall bit rate : 8 207 kb/s
    Movie name : ***селезень***
    Encoded date : UTC 2016-09-10 18: 07: 42
    Writing application : mkvmerge v8.3.0 (;Over the Horizon;) 64bit
    Writing library : libebml v1.3.1 + libmatroska v1.4.2
    Video
    ID : 1
    Format : AVC
    Format/Info : Advanced Video Codec
    Format profile : High@L4.1
    Format settings, CABAC : Yes
    Format settings, ReFrames : 12 frames
    Codec ID : V_MPEG4/ISO/AVC
    Duration : 1 h 52 min
    Bit rate : 6 926 kb/s
    Width : 1 280 pixels
    Height : 534 pixels
    Display aspect ratio : 2.40: 1
    Frame rate mode : Constant
    Frame rate : 23.976 (24000/1001) FPS
    Color space : YUV
    Chroma subsampling : 4: 2: 0
    Bit depth : 8 bits
    Scan type : Progressive
    Bits/(Pixel*Frame) : 0.423
    Stream size : 5.42 GiB (84%)
    Title : ***селезень***
    Writing library : x264 core 148 r2699+6+41 29a38aa Yuuki 8-bit@4: 2: 0 X86_64GCC 5.3.0
    Encoding settings : cabac=1/ref=12/deblock=1: -3: -3/analyse=0x3: 0x113/me=umh/subme=11/psy=1/fade_compensate=0.00/psy_rd=1.00: 0.05/mixed_ref=1/me_range=32/chroma_me=1/trellis=2/8x8dct=1/cqm=0/deadzone=21, 11/fast_pskip=0/chroma_qp_offset=-2/threads=24/lookahead_threads=4/sliced_threads=0/nr=0/decimate=1/interlaced=0/bluray_compat=0/constrained_intra=0/fgo=0/bframes=8/b_pyramid=2/b_adapt=2/b_bias=0/direct=3/weightb=1/open_gop=0/weightp=2/keyint=250/keyint_min=23/scenecut=40/intra_refresh=0/rc=crf/mbtree=0/crf=16.5000/qcomp=0.60/qpmin=0: 0: 0/qpmax=69: 69: 69/qpstep=4/ip_ratio=1.40/pb_ratio=1.30/aq=3: 0.90
    Language : English
    Default : Yes
    Forced : No
    Audio #1
    ID : 2
    Format : AC-3
    Format/Info : Audio Coding 3
    Mode extension : CM (complete main)
    Format settings, Endianness : Big
    Codec ID : A_AC3
    Duration : 1 h 52 min
    Bit rate mode : Constant
    Bit rate : 640 kb/s
    Channel(s) : 6 channels
    Channel positions : Front: L C R, Side: L R, LFE
    Sampling rate : 48.0 kHz
    Frame rate : 31.250 FPS (1536 spf)
    Compression mode : Lossy
    Stream size : 513 MiB (8%)
    Title : DUB License
    Language : Russian
    Default : Yes
    Forced : No
    Audio #2
    ID : 3
    Format : AC-3
    Format/Info : Audio Coding 3
    Mode extension : CM (complete main)
    Format settings, Endianness : Big
    Codec ID : A_AC3
    Duration : 1 h 52 min
    Bit rate mode : Constant
    Bit rate : 640 kb/s
    Channel(s) : 6 channels
    Channel positions : Front: L C R, Side: L R, LFE
    Sampling rate : 48.0 kHz
    Frame rate : 31.250 FPS (1536 spf)
    Compression mode : Lossy
    Stream size : 513 MiB (8%)
    Title : Original
    Language : English
    Default : No
    Forced : No
    Text #1
    ID : 4
    Format : UTF-8
    Codec ID : S_TEXT/UTF8
    Codec ID/Info : UTF-8 Plain Text
    Duration : 1 h 41 min
    Bit rate : 0 b/s
    Count of elements : 11
    Stream size : 371 Bytes (0%)
    Title : Forced
    Language : Russian
    Default : Yes
    Forced : No
    Text #2
    ID : 5
    Format : UTF-8
    Codec ID : S_TEXT/UTF8
    Codec ID/Info : UTF-8 Plain Text
    Duration : 1 h 43 min
    Bit rate : 95 b/s
    Count of elements : 1371
    Stream size : 72.5 KiB (0%)
    Title : Full
    Language : Russian
    Default : No
    Forced : No
    Text #3
    ID : 6
    Format : UTF-8
    Codec ID : S_TEXT/UTF8
    Codec ID/Info : UTF-8 Plain Text
    Duration : 1 h 42 min
    Bit rate : 65 b/s
    Count of elements : 1508
    Stream size : 49.4 KiB (0%)
    Title : Full
    Language : English
    Default : No
    Forced : No
    Text #4
    ID : 7
    Format : UTF-8
    Codec ID : S_TEXT/UTF8
    Codec ID/Info : UTF-8 Plain Text
    Duration : 1 h 43 min
    Bit rate : 74 b/s
    Count of elements : 1879
    Stream size : 56.7 KiB (0%)
    Title : SDH
    Language : English
    Default : No
    Forced : No
    Menu
    00: 00: 00.000 : en: 00: 00: 00.000
    00: 05: 55.564 : en: 00: 05: 55.564
    00: 12: 18.571 : en: 00: 12: 18.571
    00: 18: 53.507 : en: 00: 18: 53.507
    00: 26: 38.096 : en: 00: 26: 38.096
    00: 33: 14.492 : en: 00: 33: 14.492
    00: 38: 56.459 : en: 00: 38: 56.459
    00: 44: 11.190 : en: 00: 44: 11.190
    00: 49: 40.311 : en: 00: 49: 40.311
    00: 55: 40.629 : en: 00: 55: 40.629
    01: 02: 01.259 : en: 01: 02: 01.259
    01: 04: 51.971 : en: 01: 04: 51.971
    01: 14: 32.760 : en: 01: 14: 32.760
    01: 21: 18.415 : en: 01: 21: 18.415
    01: 28: 10.160 : en: 01: 28: 10.160
    01: 36: 58.229 : en: 01: 36: 58.229
    01: 41: 52.023 : en: 01: 41: 52.023
    01: 46: 20.874 : en: 01: 46: 20.874
    Скриншоты

    Релиз подготовил: Автор релиза:

    Онлайн видео Черепашки-ниндзя 2


    Размер скачиваемого торрента: 6.43 GB (6902961321 Bytes)

    Черепашки-ниндзя 2/Teenage Mutant Ninja Turtles: Out of the Shadows (2016) BDRip 720p от ExKinoRay | Лицензия
    загрузка...
    Рейтинг →
     (голосов: 1, оценка 5/5, голосовать можно 1 раз )

    Другие торренты по теме:

  • Черепашки-ниндзя / Teenage Mutant Ninja Turtles (1990) НDRip от Scarabey | P
  • Черепашки-ниндзя / Teenage Mutant Ninja Turtles / TMNT (2012-2013) WEB-DLRip
  • Черепашки Ниндзя / Teenage Mutant Ninja Turtles (2012) WEB-DLRip | Nickelodeon | iPhone скачать через торрент бесплатно
  • Черепашки-ниндзя / Teenage Mutant Ninja Turtles (2012-2014) WEB-DLRip-AVC 720p
  • Черепашки-ниндзя / Teenage Mutant Ninja Turtles (2013-2014) WEB-DLRip | L
  • Черепашки-ниндзя / Teenage Mutant Ninja Turtles (2014) HD 720p | Тизер скачать через торрент бесплатно
  • Черепашки-ниндзя / Teenage Mutant Ninja Turtles (2013-2014) WEB-DLRip | L
  • Черепашки-ниндзя! / Teenage mutant ninja turtles (2014) Android скачать через торрент бесплатно


    • Комментарии (0):

      Информация

      Информация

        Посетители, находящиеся в группе Гости, не могут оставлять комментарии в данной новости.

        ↓ Меню



        ↓ Опрос

        А Вы добавили сайт в закладки?
        Да
        Не


        Top 10 за месяц (Фильмы)