.
Авторизация | Регистрация
» » Отмель / The Shallows (2016) BDRip 1080p | iTunes скачать торрент бесплатно




    Отмель / The Shallows (2016) BDRip 1080p | iTunes скачать торрент бесплатно

    Опубликовал: Админ | Дата: 11-09-2016, 05:00 | Просмотров: 34



    Детально о кино
    Русское название: Отмель
    Русское название в мировом прокате: The Shallows
    Создали в: 2016
    Категория жанра: ужасы, триллер, драма
    Главный режиссер: Жауме Коллет-Серра

    Актеры
    Блейк Лайвли, Оскар Хаэнада, Бретт Каллен, Седона Ледже, Пабло Кальва, Диего Эспехель, Джанелл Бэйли, Ава Дин, Челси Муди, Салли Сигалл

    Сюжет фильма
    Бескрайний океан, безлюдный пляж и идеальная погода для серфингистов в поисках хорошей волны. Казалось бы, ничто не предвещает беды для очаровательной любительницы серфинга в одиночку. Разве что свидание тет-а-тет с гигантской акулой, которая загонит спортсменку на песчаную отмель и не отступит до тех пор, пока не получит своё.


    Снималось в: США/Columbia Pictures, Ombra Films, Weimaraner Republic Pictures
    Время просмотра: 01: 26: 16
    Перевод текста: Дублированный iTunes
    Файл
    Тип видео: MKV
    Качество фильма: BDRip 1080p
    Информация о видео: MPEG-4 AVC, 12400 kb/s, 1920x800
    Информация о звуке: Russian: AC3, 384 kb/s (6 ch)/DTS, 1510 kb/s (6 ch)
    Субтитры: Russian (forced, full), English (full, SDH)
    MI

    Общее
    Уникальный идентификатор : 173085718314876799311845400583693172441 (0x823718C6E428978793D24F2537CC7ED9)
    Полное имя : D: загрузкиThe Shallows.2016.D.BluRay1080p .mkv
    Формат : Matroska
    Версия формата : Version 2
    Размер файла : 8, 64 Гбайт
    Продолжительность : 1 ч. 26 м.
    Общий поток : 14, 3 Мбит/сек
    Дата кодирования : UTC 2016-09-10 21: 33: 52
    Программа кодирования : mkvmerge v7.8.0 (;River Man;) 32bit built on Apr 3 2015 12: 11: 22
    Библиотека кодирования : libebml v1.3.1 + libmatroska v1.4.2
    Видео
    Идентификатор : 1
    Формат : AVC
    Формат/Информация : Advanced Video Codec
    Профиль формата : High@L4.1
    Параметр CABAC формата : Да
    Параметр ReFrames формата : 5 кадров
    Идентификатор кодека : V_MPEG4/ISO/AVC
    Продолжительность : 1 ч. 26 м.
    Битрейт : 12, 4 Мбит/сек
    Ширина : 1920 пикселей
    Высота : 800 пикселей
    Соотношение сторон : 2, 40: 1
    Режим частоты кадров : Постоянный
    Частота кадров : 23, 976 кадра/сек
    Цветовое пространство : YUV
    Субдискретизация насыщенности : 4: 2: 0
    Битовая глубина : 8 бит
    Тип развёртки : Прогрессивная
    Бит/(Пиксели*Кадры) : 0.338
    Размер потока : 7, 32 Гбайт (85%)
    Библиотека кодирования : x264 core 146 r2538 121396c
    Настройки программы : cabac=1/ref=5/deblock=1: -3: -3/analyse=0x3: 0x133/me=umh/subme=10/psy=1/psy_rd=1.00: 0.00/mixed_ref=1/me_range=48/chroma_me=1/trellis=2/8x8dct=1/cqm=0/deadzone=21, 11/fast_pskip=0/chroma_qp_offset=-2/threads=12/lookahead_threads=1/sliced_threads=0/nr=0/decimate=0/interlaced=0/bluray_compat=0/constrained_intra=0/bframes=6/b_pyramid=2/b_adapt=2/b_bias=0/direct=3/weightb=1/open_gop=0/weightp=2/keyint=230/keyint_min=22/scenecut=40/intra_refresh=0/rc_lookahead=60/rc=2pass/mbtree=1/bitrate=12446/ratetol=1.0/qcomp=0.60/qpmin=0/qpmax=69/qpstep=4/cplxblur=20.0/qblur=0.5/vbv_maxrate=50000/vbv_bufsize=50000/nal_hrd=none/filler=0/ip_ratio=1.40/aq=1: 1.00
    Default : Да
    Forced : Нет
    Аудио #1
    Идентификатор : 2
    Формат : AC-3
    Формат/Информация : Audio Coding 3
    Расширение режима : CM (complete main)
    Параметр Endianness формата : Big
    Идентификатор кодека : A_AC3
    Продолжительность : 1 ч. 26 м.
    Вид битрейта : Постоянный
    Битрейт : 384 Кбит/сек
    Каналы : 6 каналов
    Расположение каналов : Front: L C R, Side: L R, LFE
    Частота : 48, 0 КГц
    Битовая глубина : 16 бит
    Метод сжатия : С потерями
    Размер потока : 237 Мбайт (3%)
    Заголовок : iTunes
    Язык : Russian
    Default : Нет
    Forced : Нет
    Аудио #2
    Идентификатор : 3
    Формат : DTS
    Формат/Информация : Digital Theater Systems
    Режим : 16
    Параметр Endianness формата : Big
    Идентификатор кодека : A_DTS
    Продолжительность : 1 ч. 26 м.
    Вид битрейта : Постоянный
    Битрейт : 1509 Кбит/сек
    Каналы : 6 каналов
    Расположение каналов : Front: L C R, Side: L R, LFE
    Частота : 48, 0 КГц
    Битовая глубина : 24 бит
    Метод сжатия : С потерями
    Размер потока : 931 Мбайт (11%)
    Язык : English
    Default : Нет
    Forced : Нет
    Текст #1
    Идентификатор : 4
    Формат : UTF-8
    Идентификатор кодека : S_TEXT/UTF8
    Идентификатор кодека/Информация : UTF-8 Plain Text
    Заголовок : forced
    Язык : Russian
    Default : Да
    Forced : Нет
    Текст #2
    Идентификатор : 5
    Формат : UTF-8
    Идентификатор кодека : S_TEXT/UTF8
    Идентификатор кодека/Информация : UTF-8 Plain Text
    Заголовок : full_
    Язык : Russian
    Default : Нет
    Forced : Нет
    Текст #3
    Идентификатор : 6
    Формат : UTF-8
    Идентификатор кодека : S_TEXT/UTF8
    Идентификатор кодека/Информация : UTF-8 Plain Text
    Заголовок : full_
    Язык : English
    Default : Нет
    Forced : Нет
    Текст #4
    Идентификатор : 7
    Формат : UTF-8
    Идентификатор кодека : S_TEXT/UTF8
    Идентификатор кодека/Информация : UTF-8 Plain Text
    Заголовок : SDH
    Язык : English
    Default : Нет
    Forced : Нет
    Меню
    00: 00: 00.000 : en: 00: 00: 00.000
    00: 08: 09.698 : en: 00: 08: 09.698
    00: 15: 10.409 : en: 00: 15: 10.409
    00: 20: 31.939 : en: 00: 20: 31.939
    00: 25: 45.878 : en: 00: 25: 45.878
    00: 30: 07.055 : en: 00: 30: 07.055
    00: 36: 04.120 : en: 00: 36: 04.120
    00: 40: 39.687 : en: 00: 40: 39.687
    00: 45: 41.614 : en: 00: 45: 41.614
    00: 49: 32.219 : en: 00: 49: 32.219
    00: 55: 57.980 : en: 00: 55: 57.980
    01: 01: 21.511 : en: 01: 01: 21.511
    01: 06: 22.562 : en: 01: 06: 22.562
    01: 09: 57.443 : en: 01: 09: 57.443
    01: 13: 38.706 : en: 01: 13: 38.706
    01: 19: 01.487 : en: 01: 19: 01.487
    Скриншоты







    Онлайн видео Отмель


    Размер скачиваемого торрента: 8.64 GB (9274471908 Bytes)

    Отмель/The Shallows (2016) BDRip 1080p | iTunes
    загрузка...
    Рейтинг →
     (голосов: 1, оценка 3/5, голосовать можно 1 раз )

    Другие торренты по теме:

  • Отмель / The Shallows (2016) TS | D скачать торрент бесплатно
  • Отмель / The Shallows (2016) TS | Line скачать торрент бесплатно
  • Отмель / The Shallows (2016) WEB-DL 1080p | iTunes скачать торрент бесплатно
  • Отмель / The Shallows (2016) WEB-DL 720p | iTunes скачать торрент бесплатно
  • Отмель / The Shallows (2016) WEB-DLRip от AleksSin | iTunes скачать торрент бесплатно
  • Отмель / The Shallows (2016) WEB-DLRip-AVC | iTunes скачать торрент бесплатно
  • Отмель / The Shallows (2016) BDRip 1080p | iTunes скачать торрент бесплатно
  • Отмель / The Shallows (2016) HDRip от Scarabey | iTunes скачать торрент бесплатно


    • Комментарии (0):

      Информация

      Информация

        Посетители, находящиеся в группе Гости, не могут оставлять комментарии в данной новости.

        ↓ Меню



        ↓ Опрос

        А Вы добавили сайт в закладки?
        Да
        Не


        Top 10 за неделю (Фильмы)