.
Авторизация | Регистрация
» » Черепашки-ниндзя 2 / Teenage Mutant Ninja Turtles: Out of the Shadows (2016) BDRip 1080p от ExKinoRay | iTunes скачать торрент бесплатно




    Черепашки-ниндзя 2 / Teenage Mutant Ninja Turtles: Out of the Shadows (2016) BDRip 1080p от ExKinoRay | iTunes скачать торрент бесплатно

    Опубликовал: Админ | Дата: 11-09-2016, 05:01 | Просмотров: 45



    Детально о кино
    Русское название: Черепашки-ниндзя 2
    Русское название в мировом прокате: Teenage Mutant Ninja Turtles: Out of the Shadows
    Создали в: 2016
    Категория жанра: Фантастика, фэнтези, боевик, комедия, приключения
    Главный режиссер: Дэйв Грин

    Актеры
    Меган Фокс, Алан Ричсон, Уилл Арнетт, Стефен Фаррелли, Алессандра Амброзио, Брэд Гэррет, Тайлер Перри
    О фильме:
    Доблестная четверка пионеров в костяных бронежилетах продолжает исподтишка охранять общественный порядок в Нью-Йорке. Между тем, главный уголовный авторитет города по кличке Шреддер сбегает из-под стражи. Вместе со своей бандой Черная нога он начинает творить всяческие непотребства: топчет муравейники, поливает цветы в парке китайским супер-клеем, распевает гимн Советского Союза на японском языке и организует вторжение инопланетного мозга-желе, собирающегося красиво разбомбить человечество северным сиянием. Черепашкам и их боевой подруге Эйприл О’Нил вновь предстоит спасать всех людей доброй воли, заручившись неожиданной помощью фаната Пятницы 13-е - мстителя в хоккейной маске Кейси Джонса.

    Снималось в: США
    Киностудия: Gama Entertainment Partners, Nickelodeon Movies, Paramount Pictures, Platinum Dunes
    Время просмотра: 01: 52: 15
    Перевод текста: Дублированный | iTunes
    Файл
    Кодек для видео: MPEG-4
    Качество фильма: BDRip 1080p
    Информация о видео: 1920x800, 13.1 Mbit/s, 23.976 fps
    Информация о звуке:
    Информация о звуке #01: 48 kHz, AC3, 5.1, 384 Kbps | Дублированный, iTunes |
    Информация о звуке #02: 48 kHz, AC3, 5.1, 640 kbps | Оригинал |
    Субтитры: Русские (forced, full), английские (full, SDH)

    MI
    General
    Unique ID : 180814407906876079714479173634819978907 (0x88079697F986C426A00D342A1D75769B)
    Complete name : G: VideoTeenage.Mutant.Ninja.Turtles.Out.Of.The.Shadows.2016.DRip.1080p.ExKinoRay.mkv
    Format : Matroska
    Format version : Version 4/Version 2
    File size : 11.0 GiB
    Duration : 1 h 52 min
    Overall bit rate : 14.1 Mb/s
    Movie name : ***селезень***
    Encoded date : UTC 2016-09-09 01: 39: 35
    Writing application : mkvmerge v8.3.0 (;Over the Horizon;) 64bit
    Writing library : libebml v1.3.1 + libmatroska v1.4.2
    Video
    ID : 1
    Format : AVC
    Format/Info : Advanced Video Codec
    Format profile : High@L4.1
    Format settings, CABAC : Yes
    Format settings, ReFrames : 5 frames
    Codec ID : V_MPEG4/ISO/AVC
    Duration : 1 h 52 min
    Bit rate : 13.1 Mb/s
    Width : 1 920 pixels
    Height : 800 pixels
    Display aspect ratio : 2.40: 1
    Frame rate mode : Constant
    Frame rate : 23.976 (24000/1001) FPS
    Color space : YUV
    Chroma subsampling : 4: 2: 0
    Bit depth : 8 bits
    Scan type : Progressive
    Bits/(Pixel*Frame) : 0.355
    Stream size : 10.2 GiB (93%)
    Title : ***селезень***
    Writing library : x264 core 146 r2538 121396c
    Encoding settings : cabac=1/ref=5/deblock=1: -3: -3/analyse=0x3: 0x133/me=tesa/subme=11/psy=1/psy_rd=1.04: 0.00/mixed_ref=1/me_range=32/chroma_me=1/trellis=2/8x8dct=1/cqm=0/deadzone=21, 11/fast_pskip=0/chroma_qp_offset=-2/threads=60/lookahead_threads=6/sliced_threads=0/nr=0/decimate=0/interlaced=0/bluray_compat=0/constrained_intra=0/bframes=9/b_pyramid=2/b_adapt=2/b_bias=0/direct=3/weightb=1/open_gop=0/weightp=2/keyint=240/keyint_min=23/scenecut=40/intra_refresh=0/rc_lookahead=150/rc=crf/mbtree=0/crf=17.5/qcomp=0.60/qpmin=0/qpmax=69/qpstep=4/vbv_maxrate=62500/vbv_bufsize=78125/crf_max=0.0/nal_hrd=none/filler=0/ip_ratio=1.40/pb_ratio=1.30/aq=1: 0.80/zones=150488, 161300, b=0.2
    Language : English
    Default : Yes
    Forced : No
    Color range : Limited
    Matrix coefficients : BT.709
    Audio #1
    ID : 2
    Format : AC-3
    Format/Info : Audio Coding 3
    Mode extension : CM (complete main)
    Format settings, Endianness : Big
    Codec ID : A_AC3
    Duration : 1 h 52 min
    Bit rate mode : Constant
    Bit rate : 384 kb/s
    Channel(s) : 6 channels
    Channel positions : Front: L C R, Side: L R, LFE
    Sampling rate : 48.0 kHz
    Frame rate : 31.250 FPS (1536 spf)
    Compression mode : Lossy
    Stream size : 308 MiB (3%)
    Title : DUB iTunes
    Language : Russian
    Default : Yes
    Forced : No
    Audio #2
    ID : 3
    Format : AC-3
    Format/Info : Audio Coding 3
    Mode extension : CM (complete main)
    Format settings, Endianness : Big
    Codec ID : A_AC3
    Duration : 1 h 52 min
    Bit rate mode : Constant
    Bit rate : 640 kb/s
    Channel(s) : 6 channels
    Channel positions : Front: L C R, Side: L R, LFE
    Sampling rate : 48.0 kHz
    Frame rate : 31.250 FPS (1536 spf)
    Compression mode : Lossy
    Stream size : 513 MiB (5%)
    Title : Original
    Language : English
    Default : No
    Forced : No
    Text #1
    ID : 4
    Format : UTF-8
    Codec ID : S_TEXT/UTF8
    Codec ID/Info : UTF-8 Plain Text
    Duration : 1 h 41 min
    Bit rate : 0 b/s
    Count of elements : 11
    Stream size : 371 Bytes (0%)
    Title : Forced
    Language : Russian
    Default : Yes
    Forced : No
    Text #2
    ID : 5
    Format : UTF-8
    Codec ID : S_TEXT/UTF8
    Codec ID/Info : UTF-8 Plain Text
    Duration : 1 h 43 min
    Bit rate : 95 b/s
    Count of elements : 1371
    Stream size : 72.5 KiB (0%)
    Title : Full
    Language : Russian
    Default : No
    Forced : No
    Text #3
    ID : 6
    Format : UTF-8
    Codec ID : S_TEXT/UTF8
    Codec ID/Info : UTF-8 Plain Text
    Duration : 1 h 42 min
    Bit rate : 65 b/s
    Count of elements : 1508
    Stream size : 49.4 KiB (0%)
    Title : Full
    Language : English
    Default : No
    Forced : No
    Text #4
    ID : 7
    Format : UTF-8
    Codec ID : S_TEXT/UTF8
    Codec ID/Info : UTF-8 Plain Text
    Duration : 1 h 43 min
    Bit rate : 74 b/s
    Count of elements : 1879
    Stream size : 56.7 KiB (0%)
    Title : SDH
    Language : English
    Default : No
    Forced : No
    Menu
    00: 00: 00.000 : en: 00: 00: 00.000
    00: 05: 55.564 : en: 00: 05: 55.564
    00: 12: 18.571 : en: 00: 12: 18.571
    00: 18: 53.507 : en: 00: 18: 53.507
    00: 26: 38.096 : en: 00: 26: 38.096
    00: 33: 14.492 : en: 00: 33: 14.492
    00: 38: 56.459 : en: 00: 38: 56.459
    00: 44: 11.190 : en: 00: 44: 11.190
    00: 49: 40.311 : en: 00: 49: 40.311
    00: 55: 40.629 : en: 00: 55: 40.629
    01: 02: 01.259 : en: 01: 02: 01.259
    01: 04: 51.971 : en: 01: 04: 51.971
    01: 14: 32.760 : en: 01: 14: 32.760
    01: 21: 18.415 : en: 01: 21: 18.415
    01: 28: 10.160 : en: 01: 28: 10.160
    01: 36: 58.229 : en: 01: 36: 58.229
    01: 41: 52.023 : en: 01: 41: 52.023
    01: 46: 20.874 : en: 01: 46: 20.874
    Скриншоты

    Релиз подготовил: Автор релиза:

    Онлайн видео Черепашки-ниндзя 2


    Размер скачиваемого торрента: 11.04 GB (11854143000 Bytes)

    Черепашки-ниндзя 2/Teenage Mutant Ninja Turtles: Out of the Shadows (2016) BDRip 1080p от ExKinoRay | iTunes
    загрузка...
    Рейтинг →
     (голосов: 1, оценка 5/5, голосовать можно 1 раз )

    Другие торренты по теме:

  • Черепашки-ниндзя / Teenage Mutant Ninja Turtles (1990) НDRip от Scarabey | P торрент скачать бесплатно
  • Черепашки-ниндзя / Teenage Mutant Ninja Turtles / TMNT (2012-2013) WEB-DLRip торрент скачать бесплатно
  • Черепашки Ниндзя / Teenage Mutant Ninja Turtles (2012) WEB-DLRip | Nickelodeon | iPhone скачать через торрент бесплатно
  • Черепашки-ниндзя / Teenage Mutant Ninja Turtles (2012-2014) WEB-DLRip-AVC 720p торрент скачать бесплатно
  • Черепашки-ниндзя / Teenage Mutant Ninja Turtles (2013-2014) WEB-DLRip | L торрент скачать бесплатно
  • Черепашки-ниндзя / Teenage Mutant Ninja Turtles (2014) HD 720p | Тизер скачать через торрент бесплатно
  • Черепашки-ниндзя / Teenage Mutant Ninja Turtles (2013-2014) WEB-DLRip | L торрент скачать бесплатно
  • Черепашки-ниндзя! / Teenage mutant ninja turtles (2014) Android скачать через торрент бесплатно


    • Комментарии (0):

      Информация

      Информация

        Посетители, находящиеся в группе Гости, не могут оставлять комментарии в данной новости.

        ↓ Меню



        ↓ Опрос

        А Вы добавили сайт в закладки?
        Да
        Не


        Top 10 за неделю (Фильмы)