.
Авторизация | Регистрация
» » Новогодний отрыв / Incidencias (2015) BDRip 720p | iTunes скачать торрент бесплатно




    Новогодний отрыв / Incidencias (2015) BDRip 720p | iTunes скачать торрент бесплатно

    Опубликовал: Админ | Дата: 12-09-2016, 05:00 | Просмотров: 13



    Детально о кино
    Русское название: Новогодний отрыв
    Русское название в мировом прокате: Incidencias
    Создали в: 2015
    Категория жанра: Комедия
    Главный режиссер: Хосе Корбачо, Хуан Крус

    Актеры
    Росси де Пальма, Лола Дуэньяс, Карлос Аресес, Иманоль Ариас, Аида Фольч, Рубен Очандиано, Нурия Гаго, Роберто Аламо, Эрнесто Альтерио

    Сюжет фильма

    В канун нового года пассажирский поезд терпит аварию и застревает на пустынном участке. Время неумолимо движется к полуночи, а помощи все нет. Пассажиры теряют последнюю надежду встретить праздник в кругу своих близких. Уныние сменяется отчаянием и подозрительностью. Всем начинает казаться, что один из путешественников — опасный преступник, вынашивающий кошмарные планы…

    Снималось в: Испания
    Киностудия: Castelao Pictures, Somnium Films
    Время просмотра: 01: 26: 34
    Перевод текста: Дублированный iTunes
    Файл
    Кодек для видео: MPEG-4 AVC
    Качество фильма: BDRip (720p)
    Информация о видео: 4857 Кбит/c, 1280x536
    Информация о звуке: Русский (AC3, 6 ch, 384 Кбит/с)
    Релиз без рекламы.
    Семпл
    Скрытый текст

    General
    Unique ID : 189114501095356069452778664144410144436 (0x8E4620C8645CDB518CA5F033B8966EB4)
    Complete name : D: Novogodnii.otryv.2015.D.BDRip.720p.mkv
    Format : Matroska
    Format version : Version 4/Version 2
    File size : 3.17 GiB
    Duration : 1 h 26 min
    Overall bit rate : 5 241 kb/s
    Encoded date : UTC 2016-09-11 13: 52: 52
    Writing application : mkvmerge v8.3.0 (;Over the Horizon;) 64bit
    Writing library : libebml v1.3.1 + libmatroska v1.4.2
    Video
    ID : 1
    Format : AVC
    Format/Info : Advanced Video Codec
    Format profile : High@L4.1
    Format settings, CABAC : Yes
    Format settings, ReFrames : 4 frames
    Codec ID : V_MPEG4/ISO/AVC
    Duration : 1 h 26 min
    Bit rate : 4 857 kb/s
    Width : 1 280 pixels
    Height : 536 pixels
    Display aspect ratio : 2.40: 1
    Frame rate mode : Constant
    Frame rate : 24.000 FPS
    Color space : YUV
    Chroma subsampling : 4: 2: 0
    Bit depth : 8 bits
    Scan type : Progressive
    Bits/(Pixel*Frame) : 0.295
    Stream size : 2.94 GiB (93%)
    Writing library : x264 core 146 r2538 121396c
    Encoding settings : cabac=1/ref=4/deblock=1: 0: 0/analyse=0x3: 0x113/me=hex/subme=7/psy=1/psy_rd=1.00: 0.00/mixed_ref=1/me_range=16/chroma_me=1/trellis=1/8x8dct=1/cqm=0/deadzone=21, 11/fast_pskip=1/chroma_qp_offset=-2/threads=12/lookahead_threads=2/sliced_threads=0/nr=0/decimate=1/interlaced=0/bluray_compat=0/constrained_intra=0/bframes=4/b_pyramid=2/b_adapt=1/b_bias=0/direct=1/weightb=1/open_gop=0/weightp=2/keyint=240/keyint_min=24/scenecut=40/intra_refresh=0/rc_lookahead=40/rc=2pass/mbtree=1/bitrate=4857/ratetol=1.0/qcomp=0.60/qpmin=0/qpmax=69/qpstep=4/cplxblur=20.0/qblur=0.5/vbv_maxrate=62500/vbv_bufsize=78125/nal_hrd=none/filler=0/ip_ratio=1.40/aq=1: 1.00
    Default : Yes
    Forced : No
    Audio
    ID : 2
    Format : AC-3
    Format/Info : Audio Coding 3
    Mode extension : CM (complete main)
    Format settings, Endianness : Big
    Codec ID : A_AC3
    Duration : 1 h 26 min
    Bit rate mode : Constant
    Bit rate : 384 kb/s
    Channel(s) : 6 channels
    Channel positions : Front: L C R, Side: L R, LFE
    Sampling rate : 48.0 kHz
    Frame rate : 31.250 FPS (1536 spf)
    Compression mode : Lossy
    Delay relative to video : 29 ms
    Stream size : 238 MiB (7%)
    Language : Russian
    Default : Yes
    Forced : No

    Скриншоты





    Онлайн видео Новогодний отрыв


    Размер скачиваемого торрента: 3.17 GB (3402754286 Bytes)

    Новогодний отрыв/Incidencias (2015) BDRip 720p | iTunes
    загрузка...
    Рейтинг →
     (голосов: 1, оценка 5/5, голосовать можно 1 раз )

    Другие торренты по теме:

  • VA - Новогодний отрыв Fly-Radio 2014 скачать через торрент бесплатно
  • VA - Новогодний отрыв Fly-Radio 2014 (2014) MP3 скачать через торрент бесплатно
  • Новогодний отрыв (2016) качество WEB-DLRip скачать торрент бесплатно


    • Комментарии (0):

      Информация

      Информация

        Посетители, находящиеся в группе Гости, не могут оставлять комментарии в данной новости.

        ↓ Меню



        ↓ Опрос

        А Вы добавили сайт в закладки?
        Да
        Не


        Top 10 за неделю (Фильмы)