.
Авторизация | Регистрация
» » Люди Икс: Апокалипсис / X-Men: Apocalypse (2016) BDRip 720p от Scarabey | iTunes скачать торрент бесплатно




    Люди Икс: Апокалипсис / X-Men: Apocalypse (2016) BDRip 720p от Scarabey | iTunes скачать торрент бесплатно

    Опубликовал: Админ | Дата: 12-09-2016, 18:26 | Просмотров: 134



    Создали в: 2016
    Снималось в: США
    Категория жанра: фантастика, боевик, приключения
    Время просмотра: 02: 23: 57
    Перевод текста: Профессиональный (полное дублирование) iTunes
    Субтитры: форсированные, русские
    Главный режиссер: Брайан Сингер/Bryan Singer

    Актеры
    Джеймс МакЭвой, Майкл Фассбендер, Дженнифер Лоуренс, Николас Холт, Оскар Айзек, Роуз Бирн, Эван Питерс, Джош Хелман, Софи Тернер, Тай Шеридан
    Описание: События Дней Минувшего Будущего оказали колоссальное влияние на мир, где мутанты и люди борются за свое место под Солнцем. В это нелегкое время Людям Икс предстоит столкнуться со своим самым опасным противником — древним мутантом Апокалипсисом, существом, схватка с которым может стать последней не только для мутантов, но и в принципе для всего человечества. В поисках способа победы над неуязвимым и бессмертным монстром Людям Икс предстоит узнать больше о происхождении своего вида. Но Апокалипсис неимоверно силен, и вероятность победы все уменьшается, ведь он твердо убежден, что только сильнейшие имеют право на выживание…
    Качество фильма видео: BDRip 720p
    Тип видео видео: MKV
    Информация о видео: 1280х534, 23.976 fps, AVC ~4555 kbps avg
    Информация о звуке: 48 kHz, AC3 Dolby Digital, 3/2 (L, C, R, l, r) + LFE ch, ~384.00 kbps avg


    МедиаИнфо

    X-Men.Apocalypse.2016.720p_BDRip_scarabey.org.mkv
    Формат : Matroska
    Версия формата : Version 4/Version 2
    Размер файла : 5, 07 Гбайт
    Продолжительность : 2 ч. 23 м.
    Общий поток : 5040 Кбит/сек
    Дата кодирования : UTC 2016-09-09 15: 28: 31
    Программа кодирования : mkvmerge v6.1.0 (;Old Devil;) built on Mar 4 2013 09: 10: 42
    Библиотека кодирования : libebml v1.3.0 + libmatroska v1.4.0
    Видео
    Идентификатор : 1
    Формат : AVC
    Формат/Информация : Advanced Video Codec
    Профиль формата : High@L4.1
    Параметр CABAC формата : Да
    Параметр ReFrames формата : 12 кадров
    Идентификатор кодека : V_MPEG4/ISO/AVC
    Продолжительность : 2 ч. 23 м.
    Битрейт : 4555 Кбит/сек
    Ширина : 1280 пикселей
    Высота : 534 пикселя
    Соотношение сторон : 2, 40: 1
    Режим частоты кадров : Постоянный
    Частота кадров : 23, 976 (24000/1001) кадра/сек
    Цветовое пространство : YUV
    Субдискретизация насыщенности : 4: 2: 0
    Битовая глубина : 8 бит
    Тип развёртки : Прогрессивная
    Бит/(Пиксели*Кадры) : 0.278
    Размер потока : 4, 58 Гбайт (90%)
    Библиотека кодирования : x264 core 148 r2699+6+41 29a38aa Yuuki 8-bit@4: 2: 0 X86_64GCC 5.3.0
    Настройки программы : cabac=1/ref=12/deblock=1: -3: -3/analyse=0x3: 0x113/me=umh/subme=11/psy=1/fade_compensate=0.00/psy_rd=1.00: 0.05/mixed_ref=1/me_range=32/chroma_me=1/trellis=2/8x8dct=1/cqm=0/deadzone=21, 11/fast_pskip=0/chroma_qp_offset=-2/threads=24/lookahead_threads=4/sliced_threads=0/nr=0/decimate=1/interlaced=0/bluray_compat=0/constrained_intra=0/fgo=0/bframes=8/b_pyramid=2/b_adapt=2/b_bias=0/direct=3/weightb=1/open_gop=0/weightp=2/keyint=250/keyint_min=23/scenecut=40/intra_refresh=0/rc=crf/mbtree=0/crf=17.0000/qcomp=0.60/qpmin=0: 0: 0/qpmax=69: 69: 69/qpstep=4/ip_ratio=1.40/pb_ratio=1.30/aq=3: 0.90
    Язык : English
    Default : Да
    Forced : Нет
    Аудио
    Идентификатор : 2
    Формат : AC-3
    Формат/Информация : Audio Coding 3
    Расширение режима : CM (complete main)
    Параметр Endianness формата : Big
    Идентификатор кодека : A_AC3
    Продолжительность : 2 ч. 23 м.
    Вид битрейта : Постоянный
    Битрейт : 384 Кбит/сек
    Каналы : 6 каналов
    Расположение каналов : Front: L C R, Side: L R, LFE
    Частота : 48, 0 КГц
    Частота кадров : 31, 250 кадров/сек (1536 spf)
    Метод сжатия : С потерями
    Размер потока : 395 Мбайт (8%)
    Заголовок : Дубляж - iTunes
    Язык : Russian
    Default : Да
    Forced : Нет
    Текст
    Идентификатор : 3
    Формат : UTF-8
    Идентификатор кодека : S_TEXT/UTF8
    Идентификатор кодека/Информация : UTF-8 Plain Text
    Заголовок : Русские, форсированные
    Язык : Russian
    Default : Да
    Forced : Нет



    Онлайн видео Люди Икс: Апокалипсис


    Размер скачиваемого торрента: 5.07 GB (5441045684 Bytes)

    Люди Икс: Апокалипсис/X-Men: Apocalypse (2016) BDRip 720p от Scarabey | iTunes
    загрузка...
    Рейтинг →
     (голосов: 1, оценка 5/5, голосовать можно 1 раз )

    Другие торренты по теме:

  • OST - Люди Икс: Апокалипсис / X-Men: Apocalypse (2016) MP3 от NNNB скачать торрент бесплатно
  • Люди Икс: Апокалипсис / X-Men: Apocalypse (2016) скачать торрент бесплатно
  • Люди Икс: Апокалипсис / X-Men: Apocalypse (2016) ТС | D | Line скачать торрент бесплатно
  • Люди Икс: Апокалипсис / X-Men: Apocalypse (2016) TS | Line скачать торрент бесплатно
  • Люди Икс: Апокалипсис / X-Men: Apocalypse (2016) WEBRip | D | Line скачать торрент бесплатно
  • Люди Икс: Апокалипсис / X-Men: Apocalypse (2016) WEBRip 720р | D | Line скачать торрент бесплатно
  • Люди Икс: Апокалипсис / X-Men: Apocalypse (2016) WEBRip-AVC | D | Line скачать торрент бесплатно
  • Люди Икс: Апокалипсис / X-Men: Apocalypse (2016) WEBRip 1080р | D | Line скачать торрент бесплатно


    • Комментарии (0):

      Информация

      Информация

        Посетители, находящиеся в группе Гости, не могут оставлять комментарии в данной новости.

        ↓ Меню



        ↓ Опрос

        А Вы добавили сайт в закладки?
        Да
        Не


        Top 10 за неделю (Фильмы)