.
Авторизация | Регистрация
» » Вдали от дома / Far from Home (1989) DVDRip от NovaLan | P скачать торрент бесплатно




    Вдали от дома / Far from Home (1989) DVDRip от NovaLan | P скачать торрент бесплатно

    Опубликовал: Админ | Дата: 12-09-2016, 18:26 | Просмотров: 80



    Снималось в: США
    Создали в: Lightning Pictures, Planet Productions
    Категория жанра: Триллер
    Создали в: 1989
    Перевод текста: Профессиональный многоголосый
    Главный режиссер: Мейерт Эйвис

    Актеры
    Дрю Бэрримор, Мэтт Фрюэр, Ричард Мэсур, Карен Остин, Сьюзен Тайррелл, Андрас Джонс, Дик Миллер, Энтони Рэпп, Конни Сойер, Дженнифер Тилли, Стефани Вальски, Муррилл Мальо, Тери Вейгель, Джон Спенсер
    Описание: Знойная пустыня в штате Невада. Самый разгар дневной жары. А в машине Чарли Кросса, путешествующего по национальным паркам Америки вместе с дочерью Джолин, заканчивается бензин. Кое-как дотянув до ближайшего городка, они находят заправку. Но бензина нет и там. Им приходится остановиться на ночевку в парке трейлеров, где в Джолин влюбляются сразу двое молодых людей. А тем временем в городке происходит серия странных убийств, и Джолин оказывается в самом центре опасного водоворота, из которого может и не выбраться. Но настоящий ужас еще только начинается…

    Исходник: DVD9 R1
    Тип релиза: DVDRip
    Контейнер: AVI
    Информация о видео: 704x416 (1.69: 1), 25 fps, XviD build 50 ~2042 kbps avg, 0.28 bit/pixel
    Информация о звуке 1: 48 kHz, AC3 Dolby Digital, 2/0 (L, R) ch, ~192 kbps (русский)
    Информация о звуке 2: 48 kHz, AC3 Dolby Digital, 2/0 (L, R) ch, ~192 kbps (английский)
    MediaInfo

    Общее
    Полное имя : D: 1АААВдали от дома.avi
    Формат : AVI
    Формат/Информация : Audio Video Interleave
    Размер файла : 1, 46 Гбайт
    Продолжительность : 1 ч. 25 м.
    Общий поток : 2442 Кбит/сек
    Программа кодирования : VirtualDubMod 1.5.10.2 (build 2540/release)
    Библиотека кодирования : VirtualDubMod build 2540/release
    Видео
    Идентификатор : 0
    Формат : MPEG-4 Visual
    Профиль формата : Advanced Simple@L5
    Параметр BVOP формата : 2
    Параметр QPel формата : Нет
    Параметр GMC формата : Без точки перехода
    Параметр матрицы формата : Default (MPEG)
    Идентификатор кодека : XVID
    Идентификатор кодека/Подсказка : XviD
    Продолжительность : 1 ч. 25 м.
    Битрейт : 2043 Кбит/сек
    Ширина : 704 пикселя
    Высота : 416 пикселей
    Соотношение сторон : 1, 692
    Частота кадров : 25, 000 кадров/сек
    Цветовое пространство : YUV
    Субдискретизация насыщенности : 4: 2: 0
    Битовая глубина : 8 бит
    Тип развёртки : Прогрессивная
    Метод сжатия : С потерями
    Бит/(Пиксели*Кадры) : 0.279
    Размер потока : 1, 22 Гбайт (84%)
    Библиотека кодирования : XviD 1.2.1 (UTC 2008-12-04)
    Аудио #1
    Идентификатор : 1
    Формат : AC-3
    Формат/Информация : Audio Coding 3
    Расширение режима : CM (complete main)
    Параметр Endianness формата : Big
    Идентификатор кодека : 2000
    Продолжительность : 1 ч. 25 м.
    Вид битрейта : Постоянный
    Битрейт : 192 Кбит/сек
    Каналы : 2 канала
    Расположение каналов : Front: L R
    Частота : 48, 0 КГц
    Битовая глубина : 16 бит
    Метод сжатия : С потерями
    Размер потока : 117 Мбайт (8%)
    Выравнивание : Разделение по промежуткам
    Продолжительность промежутка : 40 мс. (1, 00 видеокадр)
    Время предзагрузки промежутка : 500 мс.
    Аудио #2
    Идентификатор : 2
    Формат : AC-3
    Формат/Информация : Audio Coding 3
    Расширение режима : CM (complete main)
    Параметр Endianness формата : Big
    Идентификатор кодека : 2000
    Продолжительность : 1 ч. 25 м.
    Вид битрейта : Постоянный
    Битрейт : 192 Кбит/сек
    Каналы : 2 канала
    Расположение каналов : Front: L R
    Частота : 48, 0 КГц
    Битовая глубина : 16 бит
    Метод сжатия : С потерями
    Размер потока : 117 Мбайт (8%)
    Выравнивание : Разделение по промежуткам
    Продолжительность промежутка : 40 мс. (1, 00 видеокадр)
    Время предзагрузки промежутка : 500 мс.
    Скриншоты



    Релиз: 089233
    Залил: YArl

    Онлайн видео Вдали от дома


    Размер скачиваемого торрента: 1.46 GB (1565591552 Bytes)

    Вдали от дома/Far from Home (1989) DVDRip от NovaLan | P
    загрузка...
    Рейтинг →
     (голосов: 1, оценка 5/5, голосовать можно 1 раз )

    Другие торренты по теме:

  • Вдали от дома / Far from Home (1989) DVD5 скачать через торрент бесплатно
  • Вдали от дома / Miles from Home (1988) HDTVRip 720p | P, P2 скачать торрент бесплатно


    • Комментарии (0):

      Информация

      Информация

        Посетители, находящиеся в группе Гости, не могут оставлять комментарии в данной новости.

        ↓ Меню



        ↓ Опрос

        А Вы добавили сайт в закладки?
        Да
        Не


        Top 10 за неделю (Фильмы)