.
Авторизация | Регистрация
Хочешь лучшие торренты? Добавь свой email!
Добавить
» » Отмель / The Shallows (2016) BDRemux 1080p от ExKinoRay | iTunes торрент скачать бесплатно




    Отмель / The Shallows (2016) BDRemux 1080p от ExKinoRay | iTunes торрент скачать бесплатно

    Опубликовал: Админ | Дата: 13-09-2016, 05:00 | Просмотров: 130



    Детально о кино
    Русское название: Отмель
    Русское название в мировом прокате: The Shallows
    Создали в: 2016
    Категория жанра: Ужасы, триллер, драма
    Главный режиссер: Жауме Коллет-Серра

    Актеры
    Блэйк Лайвли, Оскар Хаэнада, Бретт Каллен, Седона Ледже
    О фильме:
    Бескрайний океан, безлюдный пляж и идеальная погода для серфингистов в поисках хорошей волны. Казалось бы, ничто не предвещает беды для очаровательной любительницы серфинга в одиночку. Разве что свидание тет-а-тет с гигантской акулой, которая загонит спортсменку на песчаную отмель и не отступит до тех пор, пока не получит своё.

    Снималось в: США
    Киностудия: Columbia Pictures, Ombra Films, Weimaraner Republic Pictures
    Время просмотра: 01: 26: 16
    Перевод текста: Дублированный | iTunes
    Файл
    Кодек для видео: MPEG-4
    Качество фильма: BDRemux 1080p
    Информация о видео: 1920x1080, 24.9 Mbit/s, 23.976 fps
    Информация о звуке:
    Информация о звуке #01: 48 kHz, AC3, 5.1, 384 Kbps | Дублированный, iTunes |
    Информация о звуке #02: 48 kHz, DTS-HD MA, 5.1, 3840 kbps | Оригинал |
    Субтитры: Русские (forced, full), английские

    MI
    General
    Unique ID : 238667253852464162149092286591073595249 (0xB38DA41EBB0E4283991599C8E4ED2F71)
    Complete name : G: VideoThe.Shallows.2016.BDREMUX.1080p.ExKinoRay.mkv
    Format : Matroska
    Format version : Version 4/Version 2
    File size : 17.6 GiB
    Duration : 1 h 26 min
    Overall bit rate mode : Variable
    Overall bit rate : 29.1 Mb/s
    Movie name : build by ***селезень***
    Encoded date : UTC 2016-09-12 17: 27: 28
    Writing application : mkvmerge v8.3.0 (;Over the Horizon;) 64bit
    Writing library : libebml v1.3.1 + libmatroska v1.4.2
    Video
    ID : 1
    Format : AVC
    Format/Info : Advanced Video Codec
    Format profile : High@L4.1
    Format settings, CABAC : Yes
    Format settings, ReFrames : 2 frames
    Format settings, GOP : M=1, N=10
    Codec ID : V_MPEG4/ISO/AVC
    Duration : 1 h 26 min
    Bit rate mode : Variable
    Bit rate : 24.9 Mb/s
    Width : 1 920 pixels
    Height : 1 080 pixels
    Display aspect ratio : 16: 9
    Frame rate mode : Constant
    Frame rate : 23.976 (24000/1001) FPS
    Color space : YUV
    Chroma subsampling : 4: 2: 0
    Bit depth : 8 bits
    Scan type : Progressive
    Bits/(Pixel*Frame) : 0.501
    Stream size : 15.0 GiB (85%)
    Title : build by ***селезень***
    Language : English
    Default : Yes
    Forced : No
    Audio #1
    ID : 2
    Format : AC-3
    Format/Info : Audio Coding 3
    Mode extension : CM (complete main)
    Format settings, Endianness : Big
    Codec ID : A_AC3
    Duration : 1 h 26 min
    Bit rate mode : Constant
    Bit rate : 384 kb/s
    Channel(s) : 6 channels
    Channel positions : Front: L C R, Side: L R, LFE
    Sampling rate : 48.0 kHz
    Frame rate : 31.250 FPS (1536 spf)
    Compression mode : Lossy
    Delay relative to video : 1 s 0 ms
    Stream size : 237 MiB (1%)
    Title : DUB iTunes
    Language : Russian
    Default : Yes
    Forced : No
    Audio #2
    ID : 3
    Format : DTS
    Format/Info : Digital Theater Systems
    Format profile : MA/Core
    Mode : 16
    Format settings, Endianness : Big
    Codec ID : A_DTS
    Duration : 1 h 26 min
    Bit rate mode : Variable/Constant
    Bit rate : 3 840 kb/s/1 509 kb/s
    Channel(s) : 6 channels
    Channel positions : Front: L C R, Side: L R, LFE
    Sampling rate : 48.0 kHz
    Frame rate : 93.750 FPS (512 spf)
    Bit depth : 24 bits
    Compression mode : Lossless/Lossy
    Stream size : 2.33 GiB (13%)
    Title : Original
    Language : English
    Default : No
    Forced : No
    Text #1
    ID : 4
    Format : UTF-8
    Codec ID : S_TEXT/UTF8
    Codec ID/Info : UTF-8 Plain Text
    Duration : 1 h 19 min
    Bit rate : 1 b/s
    Count of elements : 36
    Stream size : 1.00 KiB (0%)
    Title : Forced iTunes
    Language : Russian
    Default : Yes
    Forced : No
    Text #2
    ID : 5
    Format : UTF-8
    Codec ID : S_TEXT/UTF8
    Codec ID/Info : UTF-8 Plain Text
    Duration : 1 h 19 min
    Bit rate : 27 b/s
    Count of elements : 460
    Stream size : 15.9 KiB (0%)
    Title : Full iTunes
    Language : Russian
    Default : No
    Forced : No
    Text #3
    ID : 6
    Format : UTF-8
    Codec ID : S_TEXT/UTF8
    Codec ID/Info : UTF-8 Plain Text
    Duration : 4 min
    Bit rate : 6 b/s
    Count of elements : 13
    Stream size : 200 Bytes (0%)
    Title : Forced iTunes
    Language : English
    Default : No
    Forced : No
    Text #4
    ID : 7
    Format : UTF-8
    Codec ID : S_TEXT/UTF8
    Codec ID/Info : UTF-8 Plain Text
    Duration : 1 h 17 min
    Bit rate : 18 b/s
    Count of elements : 446
    Stream size : 10.3 KiB (0%)
    Title : Full iTunes
    Language : English
    Default : No
    Forced : No
    Menu
    00: 00: 00.000 : en: 1
    00: 08: 08.697 : en: 2
    00: 15: 09.409 : en: 3
    00: 20: 30.938 : en: 4
    00: 25: 44.876 : en: 5
    00: 30: 06.053 : en: 6
    00: 36: 03.118 : en: 7
    00: 40: 38.685 : en: 8
    00: 45: 40.611 : en: 9
    00: 49: 31.216 : en: 10
    00: 55: 56.976 : en: 11
    01: 01: 20.507 : en: 12
    01: 06: 21.558 : en: 13
    01: 09: 56.439 : en: 14
    01: 13: 37.701 : en: 15
    01: 19: 00.482 : en: 16
    Скриншоты

    Релиз подготовил: Автор релиза:

    Онлайн видео Отмель


    Размер скачиваемого торрента: 17.56 GB (18855248784 Bytes)

    Отмель/The Shallows (2016) BDRemux 1080p от ExKinoRay | iTunes
    загрузка...
    Рейтинг →
     (голосов: 1, оценка 3/5, голосовать можно 1 раз )

    Другие торренты по теме:

  • Отмель / The Shallows (2016) TS | D
  • Отмель / The Shallows (2016) TS | Line
  • Отмель / The Shallows (2016) WEB-DL 1080p | iTunes
  • Отмель / The Shallows (2016) WEB-DL 720p | iTunes
  • Отмель / The Shallows (2016) WEB-DLRip от AleksSin | iTunes
  • Отмель / The Shallows (2016) WEB-DLRip-AVC | iTunes
  • Отмель / The Shallows (2016) BDRip 1080p | iTunes
  • Отмель / The Shallows (2016) BDRip 1080p | iTunes


    • Комментарии (0):

      Информация

      Информация

        Посетители, находящиеся в группе Гости, не могут оставлять комментарии в данной новости.

        ↓ Меню



        ↓ Опрос

        А Вы добавили сайт в закладки?
        Да
        Не


        Top 10 за месяц (Фильмы)