.
Авторизация | Регистрация
Хочешь лучшие торренты? Добавь свой email!
Добавить
» » Финансовый монстр / Money Monster (2016) DVD9 | Custom торрент скачать бесплатно




    Финансовый монстр / Money Monster (2016) DVD9 | Custom торрент скачать бесплатно

    Опубликовал: Админ | Дата: 14-09-2016, 05:00 | Просмотров: 18


    Not every conspiracy is a theory

    Создали в: 2016
    Создали в: США/Sony Pictures Entertainment (SPE), TriStar Pictures, Smoke House, LStar Capital, Allegiance Theater
    Категория жанра: Триллер, драма, криминал
    Главный режиссер: Джоди Фостер
    Продюсеры: Лара Аламеддин, Джордж Клуни, Дэн Дубицки
    Актеры: Джордж Клуни, Джулия Робертс, Джек О;Коннелл, Доминик Уэст, Катрина Балф, Джанкарло Эспозито, Кристофер Денэм, Ленни Венито, Кристофер Бауэр, Деннис Буцикарис

    Описание фильма

    Сюжет фильма разворачивается вокруг Ли Гейтса, известного телеведущего, чьи финансовые советы сделали его настоящим гуру Уолл-Стрит. Один из зрителей шоу, воспользовавшись неудачным советом Ли, потерял все свое состояние и теперь хочет возмездия. Он берет знаменитость в заложники и тем самым поднимает рейтинги передачи, люди замерли перед экранами в ожидании ответа на вопрос: сколько стоит человеческая жизнь?
    Перевод текста: Дублированный
    Субтитры: Английские, русские
    Дата мировой премьеры: 12 мая 2016
    Дата российской премьеры: 2 июня 2016, WDSSPR
    Время просмотра: 01: 38: 33
    Качество фильма видео: DVD9
    Информация о видео: MPEG-2, 720x480@853x480 (NTSC 16: 9), ~6200 Кбит/сек
    Информация о звуке 1: AC3 5.1, 448 Кбит/сек Английский - оригинал
    Информация о звуке 2: AC3 5.1, 384 Кбит/сек Английский - описательный
    Информация о звуке 3: AC3 5.1, 448 Кбит/сек Русский - дублированный
    Доп. материалы: Вырезанные сцены, Денежный человек: Джордж Клуни, Внутри скороварки, Разборка: Анализ сцены, Музыкальный видеоклип Dan the Automator (при участии Del the Funky Homosapien) What Makes the World Go ;Round (Money!), Ролики
    MediaInfo:
    Общее
    Полное имя : F: ВидеоMoney Monster (2016) DVD9 NTSCVIDEO_TSVTS_01_4.VOB
    Формат : MPEG-PS
    Размер файла : 1024 Мбайт
    Продолжительность : 18 м.
    Режим общего битрейта : Переменный
    Общий поток : 7709 Кбит/сек
    Видео
    Идентификатор : 224 (0xE0)
    Формат : MPEG Video
    Версия формата : Version 2
    Профиль формата : Main@Main
    Параметр BVOP формата : Да
    Параметр матрицы формата : Выборочная
    Параметр GOP формата : Variable
    Продолжительность : 18 м.
    Вид битрейта : Переменный
    Битрейт : 6275 Кбит/сек
    Максимальный битрейт : 9800 Кбит/сек
    Ширина : 720 пикселей
    Высота : 480 пикселей
    Соотношение сторон : 16: 9
    Частота кадров : 23, 976 (24000/1001) кадра/сек
    Цветовое пространство : YUV
    Субдискретизация насыщенности : 4: 2: 0
    Битовая глубина : 8 бит
    Тип развёртки : Прогрессивная
    Порядок развёртки : 2: 3 Pulldown
    Метод сжатия : С потерями
    Бит/(Пиксели*Кадры) : 0.757
    Временной код первого кадра : 01: 58: 16;22
    Оригинал временного кода : Group of pictures t_head
    Размер потока : 833 Мбайт (81%)
    Аудио #1
    Идентификатор : 189 (0xBD)-128 (0x80)
    Формат : AC-3
    Формат/Информация : Audio Coding 3
    Расширение режима : CM (complete main)
    Параметр Endianness формата : Big
    Режим смешивания : DVD-Video
    Продолжительность : 18 м.
    Вид битрейта : Постоянный
    Битрейт : 448 Кбит/сек
    Каналы : 6 каналов
    Расположение каналов : Front: L C R, Side: L R, LFE
    Частота : 48, 0 КГц
    Частота кадров : 31, 250 кадров/сек (1536 spf)
    Метод сжатия : С потерями
    Задержка видео : -533 мс.
    Размер потока : 59, 5 Мбайт (6%)
    Аудио #2
    Идентификатор : 189 (0xBD)-129 (0x81)
    Формат : AC-3
    Формат/Информация : Audio Coding 3
    Расширение режима : CM (complete main)
    Параметр Endianness формата : Big
    Режим смешивания : DVD-Video
    Продолжительность : 18 м.
    Вид битрейта : Постоянный
    Битрейт : 384 Кбит/сек
    Каналы : 6 каналов
    Расположение каналов : Front: L C R, Side: L R, LFE
    Частота : 48, 0 КГц
    Частота кадров : 31, 250 кадров/сек (1536 spf)
    Метод сжатия : С потерями
    Задержка видео : -501 мс.
    Размер потока : 51, 0 Мбайт (5%)
    Аудио #3
    Идентификатор : 189 (0xBD)-130 (0x82)
    Формат : AC-3
    Формат/Информация : Audio Coding 3
    Расширение режима : CM (complete main)
    Параметр Endianness формата : Big
    Режим смешивания : DVD-Video
    Продолжительность : 18 м.
    Вид битрейта : Постоянный
    Битрейт : 448 Кбит/сек
    Каналы : 6 каналов
    Расположение каналов : Front: L C R, Side: L R, LFE
    Частота : 48, 0 КГц
    Частота кадров : 31, 250 кадров/сек (1536 spf)
    Метод сжатия : С потерями
    Задержка видео : -533 мс.
    Размер потока : 59, 5 Мбайт (6%)
    Текст #1
    Идентификатор : 189 (0xBD)-32 (0x20)
    Формат : RLE
    Формат/Информация : Run-length encoding
    Режим смешивания : DVD-Video
    Продолжительность : 18 м.
    Задержка видео : 901 мс.
    Текст #2
    Идентификатор : 189 (0xBD)-33 (0x21)
    Формат : RLE
    Формат/Информация : Run-length encoding
    Режим смешивания : DVD-Video
    Текст #3
    Идентификатор : 189 (0xBD)-34 (0x22)
    Формат : RLE
    Формат/Информация : Run-length encoding
    Режим смешивания : DVD-Video
    Меню
    Продолжительность : 18 м.
    Доп. информация:
    Исходником послужил лицензионный DVD9 из-за рубежа. Французскую звуковую дорожку заменил на русскую вместе с субтитрами. Португальскую, испанскую и тайскую дорогу удалил.
    Предупреждающие надписи скрыл.
    Использовались программы: MKVExtractGUI2, PgcDemux, DVD ReMake Pro, Adobe PhotoShop, MuxMan, MaestroSBT, DVDSubEdit.
    Скриншоты меню:


    Скриншоты:

    Залил: Саша 1992

    Онлайн видео Финансовый монстр


    Размер скачиваемого торрента: 6.88 GB (7390838784 Bytes)

    Финансовый монстр/Money Monster (2016) DVD9 | Custom
    загрузка...
    Рейтинг →
     (голосов: 1, оценка 4/5, голосовать можно 1 раз )

    Другие торренты по теме:

  • Финансовый монстр / Money Monster (2016)
  • Финансовый монстр / Money Monster (2016) WEBRip | Звук с TS
  • Финансовый монстр / Money Monster (2016) BDRip 720p | Line
  • Финансовый монстр / Money Monster (2016) BDRip 1080p | Звук с TS
  • Финансовый монстр / Money Monster (2016) HDRip | Line
  • Финансовый монстр / Money Monster (2016) HDRip | iTunes
  • Финансовый монстр / Money Monster (2016) BDRip от ExKinoRay | iTunes
  • Финансовый монстр / Money Monster (2016) HDRip от MegaPeer | iTunes


    • Комментарии (0):

      Информация

      Информация

        Посетители, находящиеся в группе Гости, не могут оставлять комментарии в данной новости.

        ↓ Меню



        ↓ Опрос

        А Вы добавили сайт в закладки?
        Да
        Не


        Top 10 за месяц (Фильмы)