.
Авторизация | Регистрация
» » Бармен (2015) DVDRip | Лицензия скачать торрент бесплатно




    Бармен (2015) DVDRip | Лицензия скачать торрент бесплатно

    Опубликовал: Админ | Дата: 14-09-2016, 05:01 | Просмотров: 58



    Детально о кино
    Русское название: Бармен
    Создали в: 2015
    Категория жанра: Комедия, фэнтези
    Главный режиссер: Дина Штурманова

    Актеры
    Виталий Гогунский, Иван Охлобыстин, Юлия Паршута, Юрий Стоянов, Жанна Эппле, Константин Крюков, Антон Богданов, Ольга Бузова, Евгения Ярушникова, Константин Федоров

    Сюжет фильма

    Вадик мечтает изменить свою скучную жизнь, но страх неудачи и неуверенность в себе мешают парню двигаться к цели. Все меняется, когда Вадик случайно забредает в пустой бар и выпивает коктейль по рецепту загадочного Бармена. Отныне он — мистер Харизма, и весь мир лежит у его ног. Даже красавица Юля, о которой раньше он не смел и мечтать, обратила на него внимание. Новый коктейль — новый талант: сегодня Вадик — интеллектуал, завтра — король танцпола… Вот только действуют волшебные напитки недолго и имеют не очень приятный побочный эффект…

    Снималось в: Россия
    Киностудия: Art Pictures Studio, ВайТ Медиа
    Время просмотра: 01: 28: 17
    Перевод текста: Не требуется Лицензия
    Файл
    Качество фильма: DVDRip
    Кодек для видео: XviD
    Информация о видео: 720x304 (2, 35: 1), 25 fps, XviD ~ 1910 kbps avg, 0.349 bit/pixel
    Информация о звуке: AC3, 48 kHz, 6 ch, ~448.00 kbps avg | русский |
    Субтитры: Отсутствуют
    Семпл
    Инфо-файл
    Общее
    Полное имя : Barmen.2015.O.DVDRip.avi
    Формат : AVI
    Формат/Информация : Audio Video Interleave
    Размер файла : 1, 46 Гбайт
    Продолжительность : 1 ч. 28 м.
    Общий поток : 2367 Кбит/сек
    Библиотека кодирования : VirtualDub build 35491/release
    Видео
    Идентификатор : 0
    Формат : MPEG-4 Visual
    Профиль формата : Advanced Simple@L5
    Параметр BVOP формата : 2
    Параметр QPel формата : Нет
    Параметр GMC формата : Без точки перехода
    Параметр матрицы формата : Default (MPEG)
    Режим смешивания : Сжатый битовый поток
    Идентификатор кодека : XVID
    Идентификатор кодека/Подсказка : XviD
    Продолжительность : 1 ч. 28 м.
    Битрейт : 1910 Кбит/сек
    Ширина : 720 пикселей
    Высота : 304 пикселя
    Соотношение сторон : 2, 35: 1
    Частота кадров : 25, 000 кадров/сек
    Цветовое пространство : YUV
    Субдискретизация насыщенности : 4: 2: 0
    Битовая глубина : 8 бит
    Тип развёртки : Прогрессивная
    Метод сжатия : С потерями
    Бит/(Пиксели*Кадры) : 0.349
    Размер потока : 1, 18 Гбайт (81%)
    Библиотека кодирования : XviD 73
    Аудио
    Идентификатор : 1
    Формат : AC-3
    Формат/Информация : Audio Coding 3
    Расширение режима : CM (complete main)
    Параметр Endianness формата : Big
    Идентификатор кодека : 2000
    Продолжительность : 1 ч. 28 м.
    Вид битрейта : Постоянный
    Битрейт : 448 Кбит/сек
    Каналы : 6 каналов
    Расположение каналов : Front: L C R, Side: L R, LFE
    Частота : 48, 0 КГц
    Частота кадров : 31, 250 кадров/сек (1536 spf)
    Метод сжатия : С потерями
    Размер потока : 283 Мбайт (19%)
    Выравнивание : Соединение по промежуткам
    Продолжительность промежутка : 40 мс. (1, 00 видеокадр)
    Время предзагрузки промежутка : 512 мс.
    Скриншоты

    Залил: admiralkz

    Онлайн видео Бармен (2015) DVDRip


    Размер скачиваемого торрента: 1.46 GB (1567376420 Bytes)

    Бармен (2015) DVDRip | Лицензия
    загрузка...
    Рейтинг →
     (голосов: 1, оценка 4/5, голосовать можно 1 раз )

    Другие торренты по теме:

  • Бармен (2015) DVDRip | Лицензия скачать торрент бесплатно
  • Бармен (2015) DVDRip от Kaztorrents | КПК | Лицензия скачать торрент бесплатно


    • Комментарии (0):

      Информация

      Информация

        Посетители, находящиеся в группе Гости, не могут оставлять комментарии в данной новости.

        ↓ Меню



        ↓ Опрос

        А Вы добавили сайт в закладки?
        Да
        Не


        Top 10 за неделю (Фильмы)