.
Авторизация | Регистрация
Хочешь лучшие торренты? Добавь свой email!
Добавить
» » Полтора шпиона / Central Intelligence (2016) BDRip | D | iTunes торрент скачать бесплатно




    Полтора шпиона / Central Intelligence (2016) BDRip | D | iTunes торрент скачать бесплатно

    Опубликовал: Админ | Дата: 15-09-2016, 05:01 | Просмотров: 36



    Они попробуют спасти мир: малыш Харт и скала Джонсон
    Детально о кино
    Русское название: Полтора шпиона
    Русское название в мировом прокате: Central Intelligence
    Создали в: 2016
    Категория жанра: Боевик, комедия, криминал
    Главный режиссер: Роусон Маршалл Тёрбер

    Актеры
    Дуэйн Джонсон, Кевин Харт, Эми Райан, Даниэль Николет, Джейсон Бейтмен, Аарон Пол, Райан Хансен, Тим Гриффин, Тимоти Джон Смит

    Сюжет фильма

    От лайка в соцсети до спасения мира — один шаг. Сегодня ты френдишь бывшего одноклассника, а завтра — он тащит тебя под пули. Кто ж знал, что заядлый любитель пончиков превратится в похожего на скалу супершпиона.

    Снималось в: США
    Киностудия: New Line Cinema, Bluegrass Films, Principato-Young Entertainment
    Время просмотра: 01: 47: 38
    Перевод текста: Профессиональный (полное дублирование)iTunes
    Файл
    Качество фильма: BDRip
    Кодек для видео: XviD
    Информация о видео: 720x304 (2, 35: 1), 23, 976 fps, XviD ~772 kbps avg, 0.147 bit/pixel
    Информация о звуке: 48 kHz, AC3, 2 ch, ~128.00 kbps avg | русский |Профессиональный (полное дублирование)iTunes
    Субтитры: Отсутствуют
    Семпл
    Инфо-файл
    Общее
    Полное имя : Poltora.Shpiona.2O16.D.BDRip.7OOMB.avi
    Формат : AVI
    Формат/Информация : Audio Video Interleave
    Размер файла : 700 Мбайт
    Продолжительность : 1 ч. 47 м.
    Общий поток : 909 Кбит/сек
    Программа кодирования : VirtualDubMod 1.5.10.2 (build 2540/release)
    Библиотека кодирования : VirtualDubMod build 2540/release
    Видео
    Идентификатор : 0
    Формат : MPEG-4 Visual
    Профиль формата : Advanced Simple@L5
    Параметр BVOP формата : 2
    Параметр QPel формата : Нет
    Параметр GMC формата : Без точки перехода
    Параметр матрицы формата : Выборочная
    Идентификатор кодека : XVID
    Идентификатор кодека/Подсказка : XviD
    Продолжительность : 1 ч. 47 м.
    Битрейт : 772 Кбит/сек
    Ширина : 720 пикселей
    Высота : 304 пикселя
    Соотношение сторон : 2, 35: 1
    Частота кадров : 23, 976 (24000/1001) кадра/сек
    Цветовое пространство : YUV
    Субдискретизация насыщенности : 4: 2: 0
    Битовая глубина : 8 бит
    Тип развёртки : Прогрессивная
    Метод сжатия : С потерями
    Бит/(Пиксели*Кадры) : 0.147
    Размер потока : 594 Мбайт (85%)
    Библиотека кодирования : XviD 1.2.1 (UTC 2008-12-04)
    Аудио
    Идентификатор : 1
    Формат : AC-3
    Формат/Информация : Audio Coding 3
    Расширение режима : CM (complete main)
    Параметр Endianness формата : Big
    Идентификатор кодека : 2000
    Продолжительность : 1 ч. 47 м.
    Вид битрейта : Постоянный
    Битрейт : 128 Кбит/сек
    Каналы : 2 канала
    Расположение каналов : Front: L R
    Частота : 48, 0 КГц
    Частота кадров : 31, 250 кадров/сек (1536 spf)
    Метод сжатия : С потерями
    Размер потока : 98, 4 Мбайт (14%)
    Выравнивание : Разделение по промежуткам
    Продолжительность промежутка : 42 мс. (1, 00 видеокадр)
    Время предзагрузки промежутка : 500 мс.
    Скриншоты

    Залил: admiralkz

    Онлайн видео Полтора шпиона


    Размер скачиваемого торрента: 699.72 MB (733708288 Bytes)

    Полтора шпиона/Central Intelligence (2016) BDRip | D | iTunes
    загрузка...
    Рейтинг →
     (голосов: 1, оценка 4/5, голосовать можно 1 раз )

    Другие торренты по теме:

  • Полтора шпиона / Central Intelligence (2016) WEBRip 1080p | Line
  • Полтора шпиона / Central Intelligence (2016) WEBRip-AVC | Line
  • Полтора шпиона / Central Intelligence (2016) WEB-DLRip | iTunes
  • Полтора шпиона / Central Intelligence (2016) WEB-DL 1080p от ExKinoRay | iTunes
  • Полтора шпиона / Central Intelligence (2016) WEB-DLRip-AVC | iTunes
  • Полтора шпиона / Central Intelligence (2016) WEB-DLRip от Generalfilm | КПК | iTunes
  • Полтора шпиона / Central Intelligence (2016) WEB-DLRip от GeneralFilm | iTunes
  • Полтора шпиона / Central Intelligence (2016) WEB-DLRip от Scarabey | iTunes


    • Комментарии (0):

      Информация

      Информация

        Посетители, находящиеся в группе Гости, не могут оставлять комментарии в данной новости.

        ↓ Меню



        ↓ Опрос

        А Вы добавили сайт в закладки?
        Да
        Не


        Top 10 за месяц (Фильмы)