.
Авторизация | Регистрация
» » Будденброки / Buddenbrooks (2008) HDRip-AVC | P скачать торрент бесплатно




    Будденброки / Buddenbrooks (2008) HDRip-AVC | P скачать торрент бесплатно

    Опубликовал: Админ | Дата: 16-09-2016, 05:00 | Просмотров: 42



    Детально о кино
    Русское название: Будденброки
    Русское название в мировом прокате: Buddenbrooks
    Создали в: 2008
    Категория жанра: драма
    Главный режиссер: Генрих Брелёр

    Актеры
    Армин Мюллер-Шталь, Ирис Бербен, Джессика Шварц, Аугуст Диль, Марк Вашке, Рабан Билинг, Леа Боске, Майя Шёне, Нина Пролл, Юстус фон Донаньи

    Сюжет фильма
    Эпическое киноповествование о судьбах трех поколений династии Будденброков — немецких коммерсантов, ярко воплотивших в себе устои и мировосприятие бюргерского сословия. Дела идут в гору, торговля бурно развивается, и Будденброки становятся одними из самых влиятельных промышленников в городе.

    Снималось в: Германия/Bavaria Film, Colonia Media, Westdeutscher Rundfunk (WDR)…
    Время просмотра: 02: 31: 22
    Перевод текста: Профессиональный (многоголосый, закадровый)
    Файл
    Качество фильма: HDRip-AVC
    Тип видео: MKV
    Информация о видео: AVC, 2700 Kb/s, 1024x434
    Информация о звуке: Russian: AC3, 384 Kb/s (6 ch), Hungarian: AC3, 192 Kb/s (2 ch)
    Субтитры: нет

    Релиз подготовил:
    MediaInfo:
    Format : Matroska
    Format version : Version 4/Version 2
    File size : 3.47 GiB
    Duration : 2 h 31 min
    Overall bit rate : 3 281 kb/s
    Movie name : Rip by basma4i
    Writing application : XviD4PSP 7.0.293 DAILY
    Writing library : Lavf57.41.100/Lavf57.41.100
    Cover : Yes
    Attachments : cover.jpg
    ENCODING_INFO : MATROSKA, WEBM MKV/MPEG4 X264 VBR-2P 2700kbps Произвольный/AC3 AC3 CBR 384kbps/AAC-LC AC3 CBR 192kbps
    Video
    ID : 1
    Format : AVC
    Format/Info : Advanced Video Codec
    Format profile : Main@L4.1
    Format settings, CABAC : Yes
    Format settings, ReFrames : 11 frames
    Codec ID : V_MPEG4/ISO/AVC
    Bit rate : 2 700 kb/s
    Width : 1 024 pixels
    Height : 434 pixels
    Display aspect ratio : 2.35: 1
    Frame rate mode : Variable
    Original frame rate : 23.976 FPS
    Color space : YUV
    Chroma subsampling : 4: 2: 0
    Bit depth : 8 bits
    Scan type : Progressive
    Bits/(Pixel*Frame) : 0.253
    Writing library : x264 core 148 r2705M 3f5ed56
    Encoding settings : cabac=1/ref=12/deblock=1: -3: -3/analyse=0x1: 0x131/me=umh/subme=11/psy=1/psy_rd=1.00: 0.20/mixed_ref=1/me_range=32/chroma_me=1/trellis=2/8x8dct=0/cqm=0/deadzone=21, 11/fast_pskip=1/chroma_qp_offset=-3/threads=11/lookahead_threads=1/sliced_threads=0/nr=0/decimate=0/interlaced=0/bluray_compat=0/constrained_intra=0/bframes=10/b_pyramid=1/b_adapt=1/b_bias=6/direct=3/weightb=1/open_gop=0/weightp=2/keyint=230/keyint_min=23/scenecut=40/intra_refresh=0/rc_lookahead=40/rc=2pass/mbtree=1/bitrate=2700/ratetol=1.0/qcomp=0.60/qpmin=0/qpmax=69/qpstep=4/cplxblur=20.0/qblur=0.5/vbv_maxrate=35000/vbv_bufsize=65000/nal_hrd=none/filler=0/ip_ratio=1.40/aq=1: 1.00
    Default : Yes
    Forced : No
    DURATION : 02: 31: 22.371000000
    Audio #1
    ID : 2
    Format : AC-3
    Format/Info : Audio Coding 3
    Mode extension : CM (complete main)
    Format settings, Endianness : Big
    Codec ID : A_AC3
    Duration : 2 h 31 min
    Bit rate mode : Constant
    Bit rate : 384 kb/s
    Channel(s) : 6 channels
    Channel positions : Front: L C R, Side: L R, LFE
    Sampling rate : 48.0 kHz
    Frame rate : 31.250 FPS (1536 spf)
    Bit depth : 32 bits
    Compression mode : Lossy
    Delay relative to video : 1 ms
    Stream size : 416 MiB (12%)
    Language : Russian
    Default : Yes
    Forced : No
    DURATION : 02: 31: 22.305000000
    Audio #2
    ID : 3
    Format : AC-3
    Format/Info : Audio Coding 3
    Mode extension : CM (complete main)
    Format settings, Endianness : Big
    Codec ID : A_AC3
    Duration : 2 h 31 min
    Bit rate mode : Constant
    Bit rate : 192 kb/s
    Channel(s) : 2 channels
    Channel positions : Front: L R
    Sampling rate : 44.1 kHz
    Frame rate : 28.711 FPS (1536 spf)
    Bit depth : 32 bits
    Compression mode : Lossy
    Stream size : 208 MiB (6%)
    Language : Hungarian
    Default : No
    Forced : No
    DURATION : 02: 31: 22.567000000
    Скриншоты


    Онлайн видео Будденброки


    Размер скачиваемого торрента: 3.47 GB (3724649343 Bytes)

    Будденброки/Buddenbrooks (2008) HDRip-AVC | P
    загрузка...
    Рейтинг →
     (голосов: 1, оценка 5/5, голосовать можно 1 раз )

    Другие торренты по теме:



      Комментарии (0):

      Информация

      Информация

        Посетители, находящиеся в группе Гости, не могут оставлять комментарии в данной новости.

        ↓ Меню



        ↓ Опрос

        А Вы добавили сайт в закладки?
        Да
        Не


        Top 10 за неделю (Фильмы)