.
Авторизация | Регистрация
Хочешь лучшие торренты? Добавь свой email!
Добавить
» » Пришельцы 3: Взятие Бастилии / Les Visiteurs: La Revolution (2016) BDRip 720p от ExKinoRay | iTunes торрент скачать бесплатно


    Пришельцы 3: Взятие Бастилии / Les Visiteurs: La Revolution (2016) BDRip 720p от ExKinoRay | iTunes торрент скачать бесплатно

    Опубликовал: Админ | Дата: 16-09-2016, 05:01 | Просмотров: 63



    Детально о кино
    Русское название: Пришельцы 3: Взятие Бастилии
    Русское название в мировом прокате: Les Visiteurs: La Revolution
    Создали в: 2016
    Категория жанра: Комедия
    Главный режиссер: Жан-Мари Пуаре

    Актеры
    Кристиан Клавье, Жан Рено, Франк Дюбоск, Карин Вьяр, Сильви Тестю, Мари-Анн Шазель, Эри Абиттан, Алекс Лутс, Стефани де Крэенкур, Вероника Буланжер
    О фильме:
    Легендарные и любимые миллионами комедии Пришельцы и Пришельцы 2: Коридоры времени получили свое продолжение. Заключительная часть трилогии будет посвящена приключениям героев Жана Рено и Кристиана Клавье во времени, и на этот раз они попадут в одну из самых ярких эпох – время Великой Французской Революции. Тот самый качественный французский юмор, по которому скучали, блестящий актерский состав, пронизанный изящной иронией сценарий дают полное основание полагать, что современное прочтение культовых французских картин не оставит равнодушными ценителей жанра, поклонников легендарных актеров и всех любителей первоклассного европейского кино.

    Снималось в: Франция
    Киностудия: Gaumont, Ouille Productions, Nexus Factory
    Время просмотра: 01: 49: 29
    Перевод текста: Дублированный |iTunes |
    Файл
    Кодек для видео: MPEG-4
    Качество фильма: BDRip 720p
    Информация о видео: 1280x536, 6875 Kbit/s, 24.000 fps
    Информация о звуке:
    Информация о звуке #01: 48 kHz, AC3, 5.1, 384 Kbps | Дублированный, iTunes |
    Информация о звуке #02: 48 kHz, DTS, 5.1, 1510 kbps | Оригинал |

    MI
    General
    Unique ID : 182580474800313245334248263885210309453 (0x895BB86A06C9BE578662D813FD1CD34D)
    Complete name : G: VideoLes.Visiteurs.La.Revolution.BDRip.720p.ExKinoRay.mkv
    Format : Matroska
    Format version : Version 4/Version 2
    File size : 6.71 GiB
    Duration : 1 h 49 min
    Overall bit rate : 8 770 kb/s
    Movie name : ***селезень***
    Encoded date : UTC 2016-09-14 02: 36: 54
    Writing application : mkvmerge v8.3.0 (;Over the Horizon;) 64bit
    Writing library : libebml v1.3.1 + libmatroska v1.4.2
    Video
    ID : 1
    Format : AVC
    Format/Info : Advanced Video Codec
    Format profile : High@L4.1
    Format settings, CABAC : Yes
    Format settings, ReFrames : 12 frames
    Codec ID : V_MPEG4/ISO/AVC
    Duration : 1 h 49 min
    Bit rate : 6 875 kb/s
    Width : 1 280 pixels
    Height : 536 pixels
    Display aspect ratio : 2.40: 1
    Frame rate mode : Constant
    Frame rate : 24.000 FPS
    Color space : YUV
    Chroma subsampling : 4: 2: 0
    Bit depth : 8 bits
    Scan type : Progressive
    Bits/(Pixel*Frame) : 0.418
    Stream size : 5.26 GiB (78%)
    Title : ***селезень***
    Writing library : x264 core 148 r2705kMod 3f5ed56
    Encoding settings : cabac=1/ref=12/deblock=1: -3: -3/analyse=0x3: 0x133/me=umh/subme=10/psy=1/fade_compensate=0.00/psy_rd=0.97: 0.00/mixed_ref=1/me_range=32/chroma_me=1/trellis=2/8x8dct=1/cqm=0/deadzone=21, 11/fast_pskip=0/chroma_qp_offset=-2/threads=12/lookahead_threads=2/sliced_threads=0/nr=0/decimate=0/interlaced=0/bluray_compat=0/constrained_intra=0/fgo=0/bframes=8/b_pyramid=2/b_adapt=2/b_bias=0/direct=3/weightb=1/open_gop=0/weightp=2/keyint=240/keyint_min=24/scenecut=40/intra_refresh=0/rc_lookahead=60/rc=crf/mbtree=0/crf=17.2000/qcomp=0.60/qpmin=0/qpmax=69/qpstep=4/vbv_maxrate=50000/vbv_bufsize=62500/crf_max=0.0/nal_hrd=none/filler=0/ip_ratio=1.35/pb_ratio=1.25/aq=3: 0.80/zones=0, 557, crf=12/152831, 157670, crf=21
    Language : French
    Default : Yes
    Forced : No
    Color range : Limited
    Matrix coefficients : BT.709
    Audio #1
    ID : 2
    Format : AC-3
    Format/Info : Audio Coding 3
    Mode extension : CM (complete main)
    Format settings, Endianness : Big
    Codec ID : A_AC3
    Duration : 1 h 49 min
    Bit rate mode : Constant
    Bit rate : 384 kb/s
    Channel(s) : 6 channels
    Channel positions : Front: L C R, Side: L R, LFE
    Sampling rate : 48.0 kHz
    Frame rate : 31.250 FPS (1536 spf)
    Compression mode : Lossy
    Stream size : 301 MiB (4%)
    Title : Dub iTunes
    Language : Russian
    Default : Yes
    Forced : No
    Audio #2
    ID : 3
    Format : DTS
    Format/Info : Digital Theater Systems
    Mode : 16
    Format settings, Endianness : Big
    Codec ID : A_DTS
    Duration : 1 h 49 min
    Bit rate mode : Constant
    Bit rate : 1 509 kb/s
    Channel(s) : 6 channels
    Channel positions : Front: L C R, Side: L R, LFE
    Sampling rate : 48.0 kHz
    Frame rate : 93.750 FPS (512 spf)
    Bit depth : 24 bits
    Compression mode : Lossy
    Stream size : 1.15 GiB (17%)
    Title : Original
    Language : French
    Default : No
    Forced : No
    Menu
    00: 00: 00.000 : en: 00: 00: 00.000
    00: 11: 30.208 : en: 00: 11: 30.208
    00: 18: 02.250 : en: 00: 18: 02.250
    00: 27: 02.792 : en: 00: 27: 02.792
    00: 36: 10.708 : en: 00: 36: 10.708
    00: 40: 20.875 : en: 00: 40: 20.875
    00: 52: 28.208 : en: 00: 52: 28.208
    00: 57: 19.208 : en: 00: 57: 19.208
    01: 07: 22.042 : en: 01: 07: 22.042
    01: 23: 56.667 : en: 01: 23: 56.667
    01: 36: 39.750 : en: 01: 36: 39.750
    01: 44: 40.542 : en: 01: 44: 40.542
    01: 49: 29.625 : en: 01: 49: 29.625
    Скриншоты

    Релиз подготовил: Автор релиза:

    Онлайн видео Пришельцы 3: Взятие Бастилии


    Размер скачиваемого торрента: 6.71 GB (7202186417 Bytes)

    Пришельцы 3: Взятие Бастилии/Les Visiteurs: La Revolution (2016) BDRip 720p от ExKinoRay | iTunes
    загрузка...
    Рейтинг →
     (голосов: 1, оценка 5/5, голосовать можно 1 раз )

    Другие торренты по теме:

  • Пришельцы 3: Взятие Бастилии / Les Visiteurs: La Rvolution (2016) BDRip 720p | D | Звук с TS
  • Пришельцы 3: Взятие Бастилии / Les Visiteurs: La Rvolution (2016) BDRip | D | Звук с TS
  • Пришельцы 3: Взятие Бастилии / Les Visiteurs: La Rvolution (2016) WEBRip | D | Звук с TS
  • Пришельцы 3: Взятие Бастилии / Les Visiteurs: La Rvolution (2016) HDRip-AVC | Звук с TS
  • Пришельцы 3: Взятие Бастилии / Les Visiteurs: La Rvolution (2016) HDRip от GeneralFilm | Звук с TS
  • Пришельцы 3: Взятие Бастилии / Les Visiteurs: La Rvolution (2016) HDRip | L
  • Пришельцы 3: Взятие Бастилии / Les Visiteurs: La Rvolution (2016) HDRip | L
  • Пришельцы 3: Взятие Бастилии / Les Visiteurs: La Rvolution (2016) BDRip 720p | Line


    • Комментарии (0):

      Информация

      Информация

        Посетители, находящиеся в группе Гости, не могут оставлять комментарии в данной новости.

        ↓ Меню



        ↓ Опрос

        А Вы добавили сайт в закладки?
        Да
        Не


        Top 10 за месяц (Фильмы)