.
Авторизация | Регистрация
» » Дедушка легкого поведения / Dirty Grandpa (2016) BDRemux 1080p от ExKinoRay | Расширенная версия | A скачать торрент бесплатно




    Дедушка легкого поведения / Dirty Grandpa (2016) BDRemux 1080p от ExKinoRay | Расширенная версия | A скачать торрент бесплатно

    Опубликовал: Админ | Дата: 16-09-2016, 05:01 | Просмотров: 45



    Детально о кино
    Русское название: Дедушка легкого поведения
    Русское название в мировом прокате: Dirty Grandpa
    Создали в: 2016
    Категория жанра: Комедия
    Главный режиссер: Дэн Мазер

    Актеры
    Роберт Де Ниро, Зак Эфрон, Зои Дойч, Обри Плаза, Джейсон Манцукас, Дермот Малруни, Джулианна Хаф, Джеффри Бауэр-Чепман, Брэндон Майкал Смит, Джейк Пикинг, Майкл Хадсон, Адам Палли, Мо Коллинз, Генри Жебровский, Катрин Дайер, Дина Дилл, Лэйн Кэрлок, Кристофер Сеттикейс, Эрик Гойнс, Гэвин Мунн
    О фильме:
    Джейсон, покладистый правильный парень, накануне свадьбы вляпывается в увеселительную поездку к морю со своим дедом, отставным генералом с легким нравом, бурной фантазией и вполне определенными потребностями… И, похоже, дедские каникулы изменят жизнь Джейсона навсегда!

    Снималось в: США
    Киностудия: Lionsgate, QED International, Josephson Entertainment
    Время просмотра: 01: 49: 35
    Перевод текста: Авторский одноголосый (закадровый) | Михаил Яроцкий
    Файл
    Кодек для видео: MPEG-4
    Качество фильма: BDRemux 1080p
    Информация о видео: 1920x1080, 34.6 Мbit/s, 23.976 fps
    Информация о звуке:
    Информация о звуке #01: 48 kHz, DTS-HD MA, 5.1, 3840 Kbps | Авторский одноголосый (закадровый) | М. Яроцкий |
    Информация о звуке #02: 48 kHz, AC3, 5.1, 640 Kbps | Авторский одноголосый (закадровый) | М. Яроцкий |
    Информация о звуке #03: 48 kHz, DTS-HD MA, 5.1, 3758 kbps | Оригинал |
    Субтитры: Английские

    MI
    General
    Unique ID : 190435792895594839806452602224699503957 (0x8F44997F8587A7CBBBF5555398FBF555)
    Complete name : G: VideoDirty.Grandpa.2016.AVO.BDREMUX.1080p.ExKinoRay.mkv
    Format : Matroska
    Format version : Version 4/Version 2
    File size : 32.7 GiB
    Duration : 1 h 49 min
    Overall bit rate mode : Variable
    Overall bit rate : 42.8 Mb/s
    Movie name : build by ***селезень***
    Encoded date : UTC 2016-09-14 06: 39: 00
    Writing application : mkvmerge v8.3.0 (;Over the Horizon;) 64bit
    Writing library : libebml v1.3.1 + libmatroska v1.4.2
    Video
    ID : 1
    Format : AVC
    Format/Info : Advanced Video Codec
    Format profile : High@L4.1
    Format settings, CABAC : Yes
    Format settings, ReFrames : 4 frames
    Codec ID : V_MPEG4/ISO/AVC
    Duration : 1 h 49 min
    Bit rate mode : Variable
    Bit rate : 34.6 Mb/s
    Maximum bit rate : 37.0 Mb/s
    Width : 1 920 pixels
    Height : 1 080 pixels
    Display aspect ratio : 16: 9
    Frame rate mode : Constant
    Frame rate : 23.976 (23976/1000) FPS
    Original frame rate : 23.976 (24000/1001) FPS
    Color space : YUV
    Chroma subsampling : 4: 2: 0
    Bit depth : 8 bits
    Scan type : Progressive
    Bits/(Pixel*Frame) : 0.696
    Stream size : 26.5 GiB (81%)
    Title : build by ***селезень***
    Language : English
    Default : No
    Forced : No
    Audio #1
    ID : 2
    Format : DTS
    Format/Info : Digital Theater Systems
    Format profile : MA/Core
    Mode : 16
    Format settings, Endianness : Big
    Codec ID : A_DTS
    Duration : 1 h 49 min
    Bit rate mode : Variable/Constant
    Bit rate : 3 840 kb/s/1 509 kb/s
    Channel(s) : 6 channels
    Channel positions : Front: L C R, Side: L R, LFE
    Sampling rate : 48.0 kHz
    Frame rate : 93.750 FPS (512 spf)
    Bit depth : 24 bits
    Compression mode : Lossless/Lossy
    Stream size : 2.89 GiB (9%)
    Title : AVO-DTS-HD MA М. Яроцкий
    Language : Russian
    Default : Yes
    Forced : No
    Audio #2
    ID : 3
    Format : AC-3
    Format/Info : Audio Coding 3
    Mode extension : CM (complete main)
    Format settings, Endianness : Big
    Codec ID : A_AC3
    Duration : 1 h 49 min
    Bit rate mode : Constant
    Bit rate : 640 kb/s
    Channel(s) : 6 channels
    Channel positions : Front: L C R, Side: L R, LFE
    Sampling rate : 48.0 kHz
    Frame rate : 31.250 FPS (1536 spf)
    Compression mode : Lossy
    Stream size : 502 MiB (1%)
    Title : AVO-AC3 М. Яроцкий
    Language : Russian
    Default : No
    Forced : No
    Audio #3
    ID : 4
    Format : DTS
    Format/Info : Digital Theater Systems
    Format profile : MA/Core
    Mode : 16
    Format settings, Endianness : Big
    Codec ID : A_DTS
    Duration : 1 h 49 min
    Bit rate mode : Variable/Constant
    Bit rate : 3 758 kb/s/1 509 kb/s
    Channel(s) : 6 channels
    Channel positions : Front: L C R, Side: L R, LFE
    Sampling rate : 48.0 kHz
    Frame rate : 93.750 FPS (512 spf)
    Bit depth : 24 bits
    Compression mode : Lossless/Lossy
    Stream size : 2.88 GiB (9%)
    Title : Original
    Language : English
    Default : No
    Forced : No
    Text #1
    ID : 5
    Format : UTF-8
    Codec ID : S_TEXT/UTF8
    Codec ID/Info : UTF-8 Plain Text
    Duration : 1 h 42 min
    Bit rate : 92 b/s
    Count of elements : 1842
    Stream size : 69.1 KiB (0%)
    Title : Full
    Language : English
    Default : No
    Forced : No
    Text #2
    ID : 6
    Format : UTF-8
    Codec ID : S_TEXT/UTF8
    Codec ID/Info : UTF-8 Plain Text
    Duration : 1 h 43 min
    Bit rate : 96 b/s
    Count of elements : 1946
    Stream size : 73.3 KiB (0%)
    Title : SDH
    Language : English
    Default : No
    Forced : No
    Menu
    00: 00: 00.000 : en: Chapter 01
    00: 06: 38.148 : en: Chapter 02
    00: 11: 28.730 : en: Chapter 03
    00: 17: 15.743 : en: Chapter 04
    00: 25: 03.585 : en: Chapter 05
    00: 31: 17.209 : en: Chapter 06
    00: 37: 24.450 : en: Chapter 07
    00: 48: 56.600 : en: Chapter 08
    00: 52: 35.360 : en: Chapter 09
    00: 58: 19.287 : en: Chapter 10
    01: 03: 28.554 : en: Chapter 11
    01: 06: 47.712 : en: Chapter 12
    01: 14: 30.049 : en: Chapter 13
    01: 21: 14.077 : en: Chapter 14
    01: 28: 26.843 : en: Chapter 15
    01: 38: 16.182 : en: Chapter 16
    Внимание!
    Присутствует нецензурная лексика.
    Сленг, используемый в фильме:

    Предсвадебный бранч - встреча самых близких людей для жениха и невесты накануне свадьбы.
    Блю Айви - маленькая дочь Jay-Z и Бейонсе.
    Куин Латифа - американская певица, рэпер, актриса и модель. Знаменита огромной пятой точкой.
    Алан Дерьмовиц - Алан Дершовиц, американский адвокат, юрист.
    Аберкромби и Фитч - американская компания, специализирующаяся на высококлассной повседневной одежде для молодежи.
    Джей Крю - американская мультибрендовая компания, специализируется на выпуске разнообразной одежды для мужчин и женщин.
    Митт Ромни - американский политик. Был кандидатом в президенты США на выборах 2012 года от Республиканской партии.
    Маджонг - китайская азартная игра с использованием игральных костей для четырёх игроков (каждый играет за себя).
    Шаффлборд - игра на размеченном столе (англ. Table shuffleboard) или корте (англ. Desk shuffleboard) с использованием киев и шайб, в случае desk shuffleboard, и шайб, которые толкаются рукой, в случае table shuffleboard. Шайба должна остановиться в пределах определённых линий, отмеченных на столе или корте.
    Шафт - металлический или углепластиковый стержень, к концу которого крепится головка с одной стороны, и надевается грип с другой стороны.
    Джек Хуяус, Бабба Чмотсон, Гарри Плейер, Фред Капля, Мишель Ви - переделанные имена знаменитых гольфистов.
    Ослиный удар - сексуальная позиция, при которой проникающий партнер ударяет принимающего по затылку или спине таким образом, что у последнего резко напрягается влагалище или задний проход, тем самым обеспечивая еще большее удовольствие проникающему партнеру.
    Богема - бродвейский мюзикл.
    Остров Гиллигана - американский телесериал (1964-1967 гг.) в жанре ситуационной комедии.
    Кен Малибу - партнер куклы Барби.
    Кто выпустил собак - знаменитая песня Baha Men - Who let the dogs out, под которую раньше любили отрываться.
    Тиндер - приложение для мобильных платформ Android и Apple iOS, предназначенное для романтических знакомств в соответствии с заданными параметрами.
    Гриндр - приложение, обеспечивающее доступ к геосоциальной сети для геев и бисексуальных мужчин.
    Кей Ди Ланг - известная канадская автор-исполнительница поп-музыки и кантри. Буддистка, вегетарианка, борец за права животных, открытая лесбиянка и ЛГБТ-активист.
    Долли Партон - американская кантри-певица и киноактриса, главной гордостью которой является шикарная грудь. Долли её застраховала на 200 000 фунтов.
    Орео - печенье, состоящее из двух шоколадных дисков и сладкой кремовой начинки между ними.
    Полковник Сандерс - основатель сети ресторанов быстрого питания Kentucky Fried Chicken (KFC).
    Джодеси - американский RB квартет, все участники чернокожие.
    Лазертаг - высокотехнологичная игра, происходящая в реальном времени и пространстве.
    Хэки-Сэк - торговая марка футбэга - небольшого мяча, также называемого коротко — бэг, различные вариации которого используются в ряде игр.
    ДжиЗа и Ризза (их можно лицезреть тут), Ол Дёти Бастад, Рейквон Зе Шеф, Метод Мэн - рэпперы GZA, RZA, Ol; Dirty Bastard, Raekwon the Chef, The Method Man.
    Майкл Бубле - канадский певец, работающий в традиционной эстрадной манере.
    Генри Миллер - американский писатель и художник. Его жизнь легла в основу его же скандальных для того времени интеллектуально-эротических романов о мире после Первой мировой и о судьбе писателя в этом мире.
    Скаймолл - сеть торгово-развлекательных центров.
    Айк - прозвище президента Эйзенхауэра.
    Скриншоты

    Релиз подготовил: Автор релиза:

    Онлайн видео Дедушка легкого поведения


    Размер скачиваемого торрента: 32.73 GB (35143280361 Bytes)

    Дедушка легкого поведения/Dirty Grandpa (2016) BDRemux 1080p от ExKinoRay | Расширенная версия | A
    загрузка...
    Рейтинг →
     (голосов: 1, оценка 5/5, голосовать можно 1 раз )

    Другие торренты по теме:

  • Дедушка легкого поведения / Дед огонь (2016) качество CAMRip скачать торрент бесплатно
  • Дедушка легкого поведения / Dirty Grandpa (2016) CAMRip скачать торрент бесплатно
  • Дедушка легкого поведения / Dirty Grandpa (2016) WEB-DLRip от MegaPeer | Line скачать торрент бесплатно
  • Дедушка легкого поведения / Dirty Grandpa (2016) WEB-DLRip AVC | Line скачать торрент бесплатно
  • Дедушка легкого поведения / Dirty Grandpa (2016) скачать торрент бесплатно
  • Дедушка легкого поведения / Dirty Grandpa (2016) BDRip 720p от ExKinoRay | Расширенная версия | iTunes скачать торрент бесплатно
  • Дедушка легкого поведения / Dirty Grandpa (2016) BDRip 1080p | iTunes скачать торрент бесплатно
  • Дедушка легкого поведения / Dirty Grandpa (2016) BDRip-AVC | Расширенная версия | iTunes скачать торрент бесплатно


    • Комментарии (0):

      Информация

      Информация

        Посетители, находящиеся в группе Гости, не могут оставлять комментарии в данной новости.

        ↓ Меню



        ↓ Опрос

        А Вы добавили сайт в закладки?
        Да
        Не


        Top 10 за неделю (Фильмы)