.
Авторизация | Регистрация
» » Ночной беглец / Run All Night (2015) DVD5 скачать торрент бесплатно




    Ночной беглец / Run All Night (2015) DVD5 скачать торрент бесплатно

    Опубликовал: Админ | Дата: 16-09-2016, 12:56 | Просмотров: 61


    Одна ночь, чтобы свести счёты

    Создали в: 2015
    Создали в: США/Warner Bros. Pictures, RatPac-Dune Entertainment, Energy Entertainment, Vertigo Entertainment
    Категория жанра: Боевик, криминал, драма
    Главный режиссер: Хауме Кольет-Серра
    Продюсеры: Рой Ли, Майкл Тадросс, Бруклин Уивер
    Актеры: Лиам Нисон, Юэль Киннаман, Коммон, Эд Харрис, Бойд Холбрук, Брюс МакГилл, Дженезис Родригез, Винсент Д’Онофрио, Лоис Смит, Бо Напп
    Описание фильма:
    Фильм расскажет историю киллера, вступившего в конфликт с бывшим боссом и в итоге вынужденного пуститься в бега, чтобы защитить свою семью от преследования мафией и властями.
    Перевод текста: Дублированный
    Субтитры: Английские, русские
    Дата мировой премьеры: 9 марта 2015
    Дата премьеры в России: 16 апреля 2015, Каро-Премьер
    Дата выхода DVD релиза: 20 августа 2015, CP Дистрибуция
    Время просмотра: 01: 49: 42
    Качество фильма видео: DVD5
    Информация о видео: MPEG-2, 720x576@1024x576 (PAL 16: 9), ~4800 Кбит/сек
    Информация о звуке 1: AC3 5.1, 384 Кбит/сек Английский - оригинал
    Информация о звуке 2: AC3 5.1, 448 Кбит/сек Русский - дублированный
    DVDInfo:
    Title: Run All Night (2015) DVD5 PAL
    Size: 4.37 Gb ( 4 587 130, 00 KBytes ) - DVD-5
    Enabled regions: 1, 2, 3, 4, 5, 6, 7, 8
    VTS_01 :
    Play Length: 01: 49: 42+00: 00: 00+00: 00: 06
    Video: PAL 16: 9 (720x576) VBR, Auto Letterboxed
    Audio:
    English (Dolby AC3, 6 ch)
    Russian (Dolby AC3, 6 ch)
    Subtitles:
    English
    Russian
    Russian
    * Menus Information *
    VIDEO_TS Menu
    Video:
    PAL 16: 9 (720x576) VBR
    Auto PanScan
    Language Unit :
    Title Menu
    VTS_01 Menu
    Video:
    PAL 16: 9 (720x576) VBR
    Auto PanScan
    English Language Unit :
    Root Menu
    MediaInfo:
    Общее
    Полное имя : G: ВидеоRun All Night (2015) DVD5 PALVIDEO_TSVTS_01_3.VOB
    Формат : MPEG-PS
    Размер файла : 1024 Мбайт
    Продолжительность : 24 м.
    Режим общего битрейта : Переменный
    Общий поток : 5798 Кбит/сек
    Видео
    Идентификатор : 224 (0xE0)
    Формат : MPEG Video
    Версия формата : Version 2
    Профиль формата : Main@Main
    Параметр BVOP формата : Да
    Параметр матрицы формата : Выборочная
    Параметр GOP формата : M=3, N=12
    Структура изображения : Frame
    Продолжительность : 24 м.
    Вид битрейта : Переменный
    Битрейт : 4851 Кбит/сек
    Максимальный битрейт : 7688 Кбит/сек
    Ширина : 720 пикселей
    Высота : 576 пикселей
    Соотношение сторон : 16: 9
    Частота кадров : 25, 000 кадров/сек
    Стандарт вещания : PAL
    Цветовое пространство : YUV
    Субдискретизация насыщенности : 4: 2: 0
    Битовая глубина : 8 бит
    Тип развёртки : Чересстрочная
    Порядок развёртки : Верхнее поле первое
    Метод сжатия : С потерями
    Бит/(Пиксели*Кадры) : 0.468
    Временной код первого кадра : 00: 50: 03: 06
    Оригинал временного кода : Group of pictures t_head
    GOP, открыто/закрыто : Открыто
    GOP, открыто/закрыто на первом кадре : Закрыто
    Размер потока : 857 Мбайт (84%)
    Аудио #1
    Идентификатор : 189 (0xBD)-128 (0x80)
    Формат : AC-3
    Формат/Информация : Audio Coding 3
    Расширение режима : CM (complete main)
    Параметр Endianness формата : Big
    Режим смешивания : DVD-Video
    Продолжительность : 24 м.
    Вид битрейта : Постоянный
    Битрейт : 384 Кбит/сек
    Каналы : 6 каналов
    Расположение каналов : Front: L C R, Side: L R, LFE
    Частота : 48, 0 КГц
    Частота кадров : 31, 250 кадров/сек (1536 spf)
    Метод сжатия : С потерями
    Задержка видео : -392 мс.
    Размер потока : 67, 8 Мбайт (7%)
    Аудио #2
    Идентификатор : 189 (0xBD)-129 (0x81)
    Формат : AC-3
    Формат/Информация : Audio Coding 3
    Расширение режима : CM (complete main)
    Параметр Endianness формата : Big
    Режим смешивания : DVD-Video
    Продолжительность : 24 м.
    Вид битрейта : Постоянный
    Битрейт : 448 Кбит/сек
    Каналы : 6 каналов
    Расположение каналов : Front: L C R, Side: L R, LFE
    Частота : 48, 0 КГц
    Частота кадров : 31, 250 кадров/сек (1536 spf)
    Метод сжатия : С потерями
    Задержка видео : -392 мс.
    Размер потока : 79, 1 Мбайт (8%)
    Текст #1
    Идентификатор : 189 (0xBD)-32 (0x20)
    Формат : RLE
    Формат/Информация : Run-length encoding
    Режим смешивания : DVD-Video
    Задержка видео : 920 мс.
    Текст #2
    Идентификатор : 189 (0xBD)-33 (0x21)
    Формат : RLE
    Формат/Информация : Run-length encoding
    Режим смешивания : DVD-Video
    Задержка видео : 760 мс.
    Меню
    Доп. информация:
    Исходник: Ночной беглец/Run All Night (2015) DVD9 | D, А | Custom
    Удалены: доп. материалы, авторские звуковые дорожки (в меню кнопки затёрты).
    Команды диска переписаны заново, оставлен один VTS.
    Видео сжато на 28, 1%
    Меню: статичное, недействующие кнопки затерты и закрыты.
    Обработка и сжатие: DVD ReMake Pro + DVD Rebuilder + CCE SP2 7 проходов + Работа с меню (Adobe PhotoShop и MuxMan).
    Скриншоты меню:

    Скриншоты:

    Залил: Саша 1992

    Онлайн видео Ночной беглец


    Размер скачиваемого торрента: 4.37 GB (4697221120 Bytes)

    Ночной беглец/Run All Night (2015) DVD5
    загрузка...
    Рейтинг →
     (голосов: 1, оценка 3/5, голосовать можно 1 раз )

    Другие торренты по теме:

  • Ночной беглец / Run All Night (2015) CAMRip | D скачать торрент бесплатно
  • Ночной беглец / Run All Night (2015) WEBRip | Звук с TS скачать торрент бесплатно
  • Ночной беглец / Run All Night (2015) WEBRip 1080p от СЕНЯ009 | D | Чистый звук скачать торрент бесплатно
  • Ночной беглец / Run All Night (2015) WEB-DLRip | Чистый звук скачать торрент бесплатно
  • Ночной беглец / Run All Night (2015) WEB-DL 720p | Чистый звук скачать торрент бесплатно
  • Ночной беглец / Run All Night (2015) WEB-DL 1080p | Чистый звук скачать торрент бесплатно
  • Ночной беглец / Run All Night (2015) WEB-DLRip | Чистый звук скачать торрент бесплатно
  • Ночной беглец / Run All Night (2015) BDRip 720p | Чистый звук скачать торрент бесплатно


    • Комментарии (0):

      Информация

      Информация

        Посетители, находящиеся в группе Гости, не могут оставлять комментарии в данной новости.

        ↓ Меню



        ↓ Опрос

        А Вы добавили сайт в закладки?
        Да
        Не


        Top 10 за неделю (Фильмы)