.
Авторизация | Регистрация
Хочешь лучшие торренты? Добавь свой email!
Добавить
» » Человек, которого не было / The Man Who Wasnt There (2001) HDRip | Гаврилов торрент скачать бесплатно




    Человек, которого не было / The Man Who Wasnt There (2001) HDRip | Гаврилов торрент скачать бесплатно

    Опубликовал: Админ | Дата: 17-09-2016, 05:00 | Просмотров: 34



    Создали в: США
    Категория жанра: Драма, Криминал
    Время просмотра: 01: 56: 05
    Перевод текста: Авторский (одноголосый, закадровый) А.Гаврилов
    Субтитры: Отсутствуют
    Главный режиссер: Джоэл Коэн
    Актеры: Билли Боб Торнтон, Фрэнсис МакДормэнд, Эдам Алекси-Маль, Майкл Бадалуччо, Кэтрин Боровитц, Ричард Дженкинс, Скарлетт Йоханссон, Джон Полито, Тони Шэлхоуб, Джеймс Гандолфини

    Описание фильма

    1949 год, Санта-Роза, Калифорния. Молчаливый парикмахер Эд Крэйн неторопливо стрижет клиентов в своем салоне, в то время как его жена крутит шашни со своим боссом, галантерейщиком Большим Дэйвом, который недавно скопил деньги на новый магазин. Внезапно Эду выпадает возможность разбогатеть на зарождающемся бизнесе химической чистки одежды, и, чтобы обзавестись капиталом, он шантажирует Большого Дэйва, понимая, что успеха в жизни он может добиться, лишь пойдя на крайние меры. Кажется, что в хитром замысле Эда нет изъянов, но вскоре он узнает, что, приняв это роковое решение, он подписал свой смертный приговор…

    Качество фильма видео: HDRip
    Информация о видео: 704x384 (1.83: 1), 24.000 fps, XviD build 73 ~1592 kbps, 0.25 bit/pixel
    Информация о звуке: 48 kHz, AC3 Dolby Digital, 2/0 (L, R) ch, ~192 kbps
    MediaInfo:
    Формат : AVI
    Формат/Информация : Audio Video Interleave
    Размер файла : 1, 45 Гбайт
    Продолжительность : 1 ч. 56 м.
    Общий поток : 1794 Кбит/сек
    Программа кодирования : VirtualDubMod 1.5.10.3 | www.virtualdub-fr.org || (build 2550/release)
    Библиотека кодирования : VirtualDubMod build 2550/release
    Видео
    Идентификатор : 0
    Формат : MPEG-4 Visual
    Профиль формата : Advanced Simple@L5
    Параметр BVOP формата : 1
    Параметр QPel формата : Нет
    Параметр GMC формата : Без точки перехода
    Параметр матрицы формата : Выборочная
    Идентификатор кодека : XVID
    Идентификатор кодека/Подсказка : XviD
    Продолжительность : 1 ч. 56 м.
    Битрейт : 1593 Кбит/сек
    Ширина : 704 пикселя
    Высота : 384 пикселя
    Соотношение сторон : 1, 85: 1
    Частота кадров : 24, 000 кадра/сек
    Цветовое пространство : YUV
    Субдискретизация насыщенности : 4: 2: 0
    Битовая глубина : 8 бит
    Тип развёртки : Прогрессивная
    Метод сжатия : С потерями
    Бит/(Пиксели*Кадры) : 0.246
    Размер потока : 1, 29 Гбайт (89%)
    Библиотека кодирования : XviD 73
    Аудио
    Идентификатор : 1
    Формат : AC-3
    Формат/Информация : Audio Coding 3
    Расширение режима : CM (complete main)
    Параметр Endianness формата : Big
    Идентификатор кодека : 2000
    Продолжительность : 1 ч. 56 м.
    Вид битрейта : Постоянный
    Битрейт : 192 Кбит/сек
    Каналы : 2 канала
    Расположение каналов : Front: L R
    Частота : 48, 0 КГц
    Битовая глубина : 16 бит
    Метод сжатия : С потерями
    Размер потока : 159 Мбайт (11%)
    Выравнивание : Разделение по промежуткам
    Продолжительность промежутка : 42 мс. (1, 00 видеокадр)
    Время предзагрузки промежутка : 500 мс.

    Скриншоты:

    Релиз подготовил: K.E.N(NNM-CLUB)

    Онлайн видео Человек, которого не было


    Размер скачиваемого торрента: 1.45 GB (1562288128 Bytes)

    Человек, которого не было/The Man Who Wasnt There (2001) HDRip | Гаврилов
    загрузка...
    Рейтинг →
     (голосов: 1, оценка 5/5, голосовать можно 1 раз )

    Другие торренты по теме:

  • Человек, которого не было / Inimene, keda polnud / 1989 / ПД / SATRip
  • Человек, которого не было / The Man Who Wasnt Therem (2001) BDRip 1080p от NNNB | P2, A
  • Человек, которого я люблю / 1966 / РУ / SATRip


    • Комментарии (0):

      Информация

      Информация

        Посетители, находящиеся в группе Гости, не могут оставлять комментарии в данной новости.

        ↓ Меню



        ↓ Опрос

        А Вы добавили сайт в закладки?
        Да
        Не


        Top 10 за месяц (Фильмы)