.
Авторизация | Регистрация
Хочешь лучшие торренты? Добавь свой email!
Добавить
» » Джоши / Joshy (2016) WEB-DLRip от Portablius | L2 торрент скачать бесплатно




    Джоши / Joshy (2016) WEB-DLRip от Portablius | L2 торрент скачать бесплатно

    Опубликовал: Админ | Дата: 18-09-2016, 05:00 | Просмотров: 95



    Детально о кино
    Русское название: Джоши
    Русское название в мировом прокате: Joshy
    Создали в: 2016
    Категория жанра: Комедия
    Главный режиссер: Джефф Бэйна

    Актеры
    Томас Миддлдитч, Адам Палли, Алекс Росс Перри, Ник Кролл, Бретт Гельман, Дженни Слейт, Лорен Грэм, Обри Плаза, Джо Сванберг, Крис Сванберг

    Сюжет фильма
    Джош не хочет упустить отличную возможность воссоединиться со старыми друзьями на своем мальчишнике, который он решает устроить даже несмотря на отменившуюся свадьбу.

    Снималось в: США
    Киностудия: American Zoetrope, Bow and Arrow Entertainment , Destro Films, StarStream Media
    Время просмотра: 01: 33: 36
    Перевод текста: Любительский (двухголосый, закадровый) (RecentFilms)
    Субтитры: Нет
    ПРИСУТСТВУЕТ РЕКЛАМА!
    ПРИСУТСТВУЕТ НЕНОРМАТИВНАЯ ЛЕКСИКА!
    Семпл
    Файл
    Кодек для видео: XviD
    Качество фильма: WEB-DLRip
    Информация о видео: 704x288 (2.44: 1), 23.976 fps, XviD build 73 ~909 kbps avg, 0.19 bit/pixel
    Информация о звуке: 48 kHz, MPEG Layer 3, 2 ch, ~192.00 kbps avg
    MediaInfo
    Общее
    Полное имя : Joshy.2016.L2.WEB-DLRip.ot.Portablius.avi
    Формат : AVI
    Формат/Информация : Audio Video Interleave
    Размер файла : 744 Мбайт
    Продолжительность : 1 ч. 33 м.
    Общий поток : 1111 Кбит/сек
    Программа кодирования : VirtualDubMod 1.5.10.3 | www.virtualdub-fr.org || (build 2550/release)
    Библиотека кодирования : VirtualDubMod build 2550/release
    Видео
    Идентификатор : 0
    Формат : MPEG-4 Visual
    Профиль формата : Advanced Simple@L5
    Параметр BVOP формата : 1
    Параметр QPel формата : Нет
    Параметр GMC формата : Без точки перехода
    Параметр матрицы формата : Выборочная
    Идентификатор кодека : XVID
    Идентификатор кодека/Подсказка : XviD
    Продолжительность : 1 ч. 33 м.
    Битрейт : 910 Кбит/сек
    Ширина : 704 пикселя
    Высота : 288 пикселей
    Соотношение сторон : 2, 40: 1
    Частота кадров : 23, 976 (23976/1000) кадра/сек
    Цветовое пространство : YUV
    Субдискретизация насыщенности : 4: 2: 0
    Битовая глубина : 8 бит
    Тип развёртки : Прогрессивная
    Метод сжатия : С потерями
    Бит/(Пиксели*Кадры) : 0.187
    Размер потока : 609 Мбайт (82%)
    Библиотека кодирования : XviD 73
    Аудио
    Идентификатор : 1
    Формат : MPEG Audio
    Версия формата : Version 1
    Профиль формата : Layer 3
    Идентификатор кодека : 55
    Идентификатор кодека/Подсказка : MP3
    Продолжительность : 1 ч. 33 м.
    Вид битрейта : Постоянный
    Битрейт : 192 Кбит/сек
    Каналы : 2 канала
    Частота : 48, 0 КГц
    Метод сжатия : С потерями
    Размер потока : 129 Мбайт (17%)
    Выравнивание : Соединение по промежуткам
    Продолжительность промежутка : 42 мс. (1, 00 видеокадр)
    Время предзагрузки промежутка : 504 мс.
    Библиотека кодирования : LAME3.99r
    Залил: Evgen Portable
    Размер скачиваемого торрента: 743.82 MB (779952128 Bytes)


    Джоши/Joshy (2016) WEB-DLRip от Portablius | L2
    загрузка...
    Рейтинг →
     (голосов: 1, оценка 5/5, голосовать можно 1 раз )

    Другие торренты по теме:

  • Джоши / Joshy (2016) BDRip 1080p | L2
  • Джоши / Joshy (2016) BDRemux 1080p | L2
  • Джоши / Joshy (2016) HDRip | L2


    • Комментарии (0):

      Информация

      Информация

        Посетители, находящиеся в группе Гости, не могут оставлять комментарии в данной новости.

        ↓ Меню



        ↓ Опрос

        А Вы добавили сайт в закладки?
        Да
        Не


        Top 10 за месяц (Фильмы)