.
Авторизация | Регистрация
» » Мерзость / Muck (2015) DVD-9 от NovaLan | L1 скачать торрент бесплатно




    Мерзость / Muck (2015) DVD-9 от NovaLan | L1 скачать торрент бесплатно

    Опубликовал: Админ | Дата: 18-09-2016, 05:00 | Просмотров: 64



    Детально о кино
    Русское название: Мерзость
    Русское название в мировом прокате: Muck
    Создали в: 2015
    Категория жанра: Ужасы
    Главный режиссер: Стив Уолш

    Актеры
    Брайс Дрэйпер, Стефани Даниэльсон, Лаура Джейкобс, Грант Алан, Лорен Франческа, Жаклин Свидберг, Кэйн Ходдер, Лачлан Бьюкэнэн, Джия Скова, Лейла Найт
    Описание: Сюжет фильма следует за группой друзей, которая с большим трудом выбирается из давно забытого древнего места погребения, расположенного посреди болот Кейп-Кода, куда они случайно провалились. Измученные, окровавленные и еле живые, они уже потеряли в болотах Кейп-Кода двух своих друзей, и те, вероятно, погибли. В этой пустынной местности они натыкаются на заброшенный дом отдыха, расположенный рядом с туманным болотом. Здесь они надеются отдохнуть и собраться с силами, в то время как один их группы отправляется за помощью. Но вне зависимости от того, как трудно им пришлось в болотах, герои фильма начинают осознавать, что гораздо более страшное зло, жаждущее их смерти, затаилось где-то поблизости. Что-то более ужасное, более дикое подстерегает их в этом самом доме. Оказавшись в ловушке, горе-путешественники должны теперь будут выбрать: или бороться и умереть, или же вернуться назад тем же смертельно опасным путем..
    Снималось в: США
    Киностудия: Universal Studios Sound Facilities, WithanO Productions
    Время просмотра: 01: 38: 29
    Перевод текста: Любительский одноголосый (den904)
    Файл
    Кодек для видео: MPEG-2
    Качество фильма: DVD-9
    Информация о видео: MPEG2, NTSC 16: 9 (720x480@853x480) VBR, 23, 976 кадра/сек
    Информация о звуке: Русский/Английский DD 5.1 (448 Kbps)

    Меню
    DVDInfo

    Title:
    Size: 4.74 Gb ( 4 970 404 KBytes ) - DVD-9
    Enabled regions: 1, 2, 3, 4, 5, 6, 7, 8
    VTS_01 :
    Play Length: 01: 38: 29+00: 01: 23
    Video: NTSC 16: 9 (720x480) VBR, Auto PanScan
    Audio:
    Russian (Dolby AC3, 6 ch)
    English (Dolby AC3, 6 ch)
    Menu Video:
    NTSC 4: 3 (704x480) VBR
    Menu English Language Unit :
    Root Menu
    MediaInfo

    Общее
    Полное имя : D: ААА2МЕРЗОСТЬVIDEO_TSVTS_01_1.VOB
    Формат : MPEG-PS
    Размер файла : 1000 Мбайт
    Продолжительность : 22 м.
    Режим общего битрейта : Переменный
    Общий поток : 6091 Кбит/сек
    Видео
    Идентификатор : 224 (0xE0)
    Формат : MPEG Video
    Версия формата : Version 2
    Профиль формата : Main@Main
    Параметр BVOP формата : Да
    Параметр матрицы формата : По умолчанию
    Параметр GOP формата : M=3, N=12
    Продолжительность : 22 м.
    Вид битрейта : Переменный
    Битрейт : 5074 Кбит/сек
    Максимальный битрейт : 8320 Кбит/сек
    Ширина : 720 пикселей
    Высота : 480 пикселей
    Соотношение сторон : 16: 9
    Частота кадров : 23, 976 кадра/сек
    Стандарт вещания : NTSC
    Цветовое пространство : YUV
    Субдискретизация насыщенности : 4: 2: 0
    Битовая глубина : 8 бит
    Тип развёртки : Прогрессивная
    Порядок развёртки : 2: 3 Pulldown
    Метод сжатия : С потерями
    Бит/(Пиксели*Кадры) : 0.612
    TimeCode_FirstFrame : 00: 00: 00;00
    TimeCode_Source : Group of pictures t_head
    Размер потока : 833 Мбайт (83%)
    Аудио #1
    Идентификатор : 189 (0xBD)-128 (0x80)
    Формат : AC-3
    Формат/Информация : Audio Coding 3
    Расширение режима : CM (complete main)
    Параметр Endianness формата : Big
    Режим смешивания : DVD-Video
    Продолжительность : 22 м.
    Вид битрейта : Постоянный
    Битрейт : 448 Кбит/сек
    Каналы : 6 каналов
    Расположение каналов : Front: L C R, Side: L R, LFE
    Частота : 48, 0 КГц
    Битовая глубина : 16 бит
    Метод сжатия : С потерями
    Размер потока : 73, 5 Мбайт (7%)
    Аудио #2
    Идентификатор : 189 (0xBD)-129 (0x81)
    Формат : AC-3
    Формат/Информация : Audio Coding 3
    Расширение режима : CM (complete main)
    Параметр Endianness формата : Big
    Режим смешивания : DVD-Video
    Продолжительность : 22 м.
    Вид битрейта : Постоянный
    Битрейт : 448 Кбит/сек
    Каналы : 6 каналов
    Расположение каналов : Front: L C R, Side: L R, LFE
    Частота : 48, 0 КГц
    Битовая глубина : 16 бит
    Метод сжатия : С потерями
    Размер потока : 73, 5 Мбайт (7%)
    Меню
    Скриншоты



    Релиз:
    Залил: YArl

    Онлайн видео Мерзость


    Размер скачиваемого торрента: 4.74 GB (5089693696 Bytes)

    Мерзость/Muck (2015) DVD-9 от NovaLan | L1
    загрузка...
    Рейтинг →
     (голосов: 1, оценка 3/5, голосовать можно 1 раз )

    Другие торренты по теме:



      Комментарии (0):

      Информация

      Информация

        Посетители, находящиеся в группе Гости, не могут оставлять комментарии в данной новости.

        ↓ Меню



        ↓ Опрос

        А Вы добавили сайт в закладки?
        Да
        Не


        Top 10 за неделю (Фильмы)