.
Авторизация | Регистрация
Хочешь лучшие торренты? Добавь свой email!
Добавить
» » Разрушение / Demolition (2015) BDRip 1080p от ExKinoRay | Лицензия торрент скачать бесплатно




    Разрушение / Demolition (2015) BDRip 1080p от ExKinoRay | Лицензия торрент скачать бесплатно

    Опубликовал: Админ | Дата: 19-09-2016, 05:01 | Просмотров: 10336



    Детально о кино
    Русское название: Разрушение
    Русское название в мировом прокате: Demolition
    Создали в: 2015
    Категория жанра: Драма
    Главный режиссер: Жан-Марк Валле

    Актеры
    Джейк Джилленхол, Наоми Уоттс, Крис Купер, Джуда Льюис, С.Дж. Уилсон, Полли Дрэйпер, Мэлаки Клири, Дебра Монк, Хезер Линд, Уасс М. Стивенс
    О фильме:
    Когда Дэвис узнал, что его жена умерла, он захотел купить шоколадные конфеты в торговом автомате, но пачка застряла. Пытаясь выяснить, почему он ничего не чувствует по поводу смерти жены, Дэвис начинает писать длинные письма в обслуживающую торговые автоматы фирму. А в письмах он рассказывает о себе и об отношениях с погибшей женой. Скоро ему отвечает Карен, менеджер компании. Попутно Дэвис понимает, что ему совершенно необходимо разобрать холодильник, разломать кабинку туалета, рабочий компьютер и разрушить собственный дом.

    Снималось в: США
    Киностудия: Black Label Media, Mr. Mudd, Right of Way Films, Sidney Kimmel Entertainment
    Время просмотра: 01: 40: 53
    Перевод текста: Дублированный | Лицензия
    Файл
    Кодек для видео: MPEG-4
    Качество фильма: BDRip 1080p
    Информация о видео: 1920x818, 15.2 Mbit/s, 23.976 fps
    Информация о звуке:
    Информация о звуке #01: 48 kHz, AC3, 5.1, 640 Kbps | Дублированный | Лицензия |
    Информация о звуке #02: 48 kHz, AC3, 5.1, 640 kbps | Оригинал |
    Субтитры: Английские

    MI
    Общее
    Уникальный идентификатор : 182842016553077200748672923031785884991 (0x898E176B0C453984BD1C556438F6CD3F)
    Полное имя : G: VideoDemolition.2015.D.BDRip.1080p.ExKinoRay.mkv
    Формат : Matroska
    Версия формата : Version 4/Version 2
    Размер файла : 11, 5 Гбайт
    Продолжительность : 1 ч. 40 м.
    Общий поток : 16, 3 Мбит/сек
    Название фильма : ***селезень***
    Дата кодирования : UTC 2016-09-17 02: 41: 52
    Программа кодирования : mkvmerge v8.3.0 (;Over the Horizon;) 64bit
    Библиотека кодирования : libebml v1.3.1 + libmatroska v1.4.2
    Видео
    Идентификатор : 1
    Формат : AVC
    Формат/Информация : Advanced Video Codec
    Профиль формата : High@L4.1
    Параметр CABAC формата : Да
    Параметр ReFrames формата : 5 кадров
    Идентификатор кодека : V_MPEG4/ISO/AVC
    Продолжительность : 1 ч. 40 м.
    Битрейт : 15, 0 Мбит/сек
    Ширина : 1920 пикселей
    Высота : 818 пикселей
    Соотношение сторон : 2, 35: 1
    Режим частоты кадров : Постоянный
    Частота кадров : 23, 976 (24000/1001) кадра/сек
    Цветовое пространство : YUV
    Субдискретизация насыщенности : 4: 2: 0
    Битовая глубина : 8 бит
    Тип развёртки : Прогрессивная
    Бит/(Пиксели*Кадры) : 0.398
    Размер потока : 10, 6 Гбайт (92%)
    Заголовок : ***селезень***
    Библиотека кодирования : x264 core 146 r2538 121396c
    Настройки программы : cabac=1/ref=5/deblock=1: -3: -3/analyse=0x3: 0x133/me=umh/subme=10/psy=1/psy_rd=1.00: 0.00/mixed_ref=1/me_range=48/chroma_me=1/trellis=2/8x8dct=1/cqm=0/deadzone=21, 11/fast_pskip=0/chroma_qp_offset=-2/threads=12/lookahead_threads=1/sliced_threads=0/nr=0/decimate=0/interlaced=0/bluray_compat=0/constrained_intra=0/bframes=6/b_pyramid=2/b_adapt=2/b_bias=0/direct=3/weightb=1/open_gop=0/weightp=2/keyint=230/keyint_min=22/scenecut=40/intra_refresh=0/rc_lookahead=60/rc=2pass/mbtree=1/bitrate=14970/ratetol=1.0/qcomp=0.60/qpmin=0/qpmax=69/qpstep=4/cplxblur=20.0/qblur=0.5/vbv_maxrate=50000/vbv_bufsize=50000/nal_hrd=none/filler=0/ip_ratio=1.40/aq=1: 1.00
    Язык : English
    Default : Да
    Forced : Нет
    Аудио #1
    Идентификатор : 2
    Формат : AC-3
    Формат/Информация : Audio Coding 3
    Расширение режима : CM (complete main)
    Параметр Endianness формата : Big
    Идентификатор кодека : A_AC3
    Продолжительность : 1 ч. 40 м.
    Вид битрейта : Постоянный
    Битрейт : 640 Кбит/сек
    Каналы : 6 каналов
    Расположение каналов : Front: L C R, Side: L R, LFE
    Частота : 48, 0 КГц
    Частота кадров : 31, 250 кадров/сек (1536 spf)
    Метод сжатия : С потерями
    Задержка видео : 20 с.
    Размер потока : 460 Мбайт (4%)
    Заголовок : Dub License
    Язык : Russian
    Default : Да
    Forced : Нет
    Аудио #2
    Идентификатор : 3
    Формат : AC-3
    Формат/Информация : Audio Coding 3
    Расширение режима : CM (complete main)
    Параметр Endianness формата : Big
    Идентификатор кодека : A_AC3
    Продолжительность : 1 ч. 40 м.
    Вид битрейта : Постоянный
    Битрейт : 640 Кбит/сек
    Каналы : 6 каналов
    Расположение каналов : Front: L C R, Side: L R, LFE
    Частота : 48, 0 КГц
    Частота кадров : 31, 250 кадров/сек (1536 spf)
    Метод сжатия : С потерями
    Размер потока : 462 Мбайт (4%)
    Заголовок : Original
    Язык : English
    Default : Нет
    Forced : Нет
    Текст #1
    Идентификатор : 4
    Формат : UTF-8
    Идентификатор кодека : S_TEXT/UTF8
    Идентификатор кодека/Информация : UTF-8 Plain Text
    Продолжительность : 1 ч. 39 м.
    Битрейт : 51 бит/сек
    Count of elements : 1256
    Размер потока : 37, 5 Кбайт (0%)
    Заголовок : Full
    Язык : English
    Default : Нет
    Forced : Нет
    Текст #2
    Идентификатор : 5
    Формат : UTF-8
    Идентификатор кодека : S_TEXT/UTF8
    Идентификатор кодека/Информация : UTF-8 Plain Text
    Продолжительность : 1 ч. 40 м.
    Битрейт : 63 бит/сек
    Count of elements : 1440
    Размер потока : 46, 6 Кбайт (0%)
    Заголовок : SDH
    Язык : English
    Default : Нет
    Forced : Нет
    Меню
    00: 00: 00.000 : en: Chapter 01
    00: 03: 59.906 : en: Chapter 02
    00: 07: 50.220 : en: Chapter 03
    00: 14: 23.071 : en: Chapter 04
    00: 18: 36.574 : en: Chapter 05
    00: 23: 29.992 : en: Chapter 06
    00: 27: 39.449 : en: Chapter 07
    00: 32: 51.261 : en: Chapter 08
    00: 38: 16.586 : en: Chapter 09
    00: 43: 58.177 : en: Chapter 10
    00: 47: 32.433 : en: Chapter 11
    00: 54: 25.721 : en: Chapter 12
    00: 57: 55.305 : en: Chapter 13
    01: 02: 06.806 : en: Chapter 14
    01: 06: 10.884 : en: Chapter 15
    01: 11: 01.549 : en: Chapter 16
    01: 17: 48.247 : en: Chapter 17
    01: 23: 16.783 : en: Chapter 18
    01: 31: 48.294 : en: Chapter 19
    01: 35: 52.705 : en: Chapter 20


    Релиз подготовил: Автор релиза:

    Онлайн видео Разрушение


    Размер скачиваемого торрента: 11.45 GB (12297842456 Bytes)

    Разрушение/Demolition (2015) BDRip 1080p от ExKinoRay | Лицензия
    загрузка...
    Рейтинг →
     (голосов: 1, оценка 3/5, голосовать можно 1 раз )

    Другие торренты по теме:



      Комментарии (0):

      Информация

      Информация

        Посетители, находящиеся в группе Гости, не могут оставлять комментарии в данной новости.

        ↓ Меню



        ↓ Опрос

        А Вы добавили сайт в закладки?
        Да
        Не


        Top 10 за месяц (Фильмы)