.
Авторизация | Регистрация
Хочешь лучшие торренты? Добавь свой email!
Добавить
» » Крутые меры / Bastille Day (2015) HDRip-AVC | L, A торрент скачать бесплатно




    Крутые меры / Bastille Day (2015) HDRip-AVC | L, A торрент скачать бесплатно

    Опубликовал: Админ | Дата: 19-09-2016, 05:01 | Просмотров: 90



    Детально о кино
    Русское название: Крутые меры
    Русское название в мировом прокате: Bastille Day
    Создали в: 2015
    Категория жанра: Боевик, драма
    Главный режиссер: Джеймс Уоткинс

    Актеры
    Идрис Эльба, Ричард Мэдден, Шарлотта Ле Бон, Келли Райлли, Анатол Юсеф, Хосе Гарсия, Хорхе Леон Мартинес, Александр Купер, Лаура Хидари, Эрик Эбони

    Сюжет фильма

    Ловкий карманник Майкл Мэйсон привлекает внимание полиции и спецслужб, когда крадет сумку, содержащую гораздо больше, чем просто бумажник. На его след выходит дерзкий и резкий спецагент ЦРУ Шон Брайар. Вдвоем они становятся мишенью тайной преступной организации и в течение суток должны вывести злоумышленников на чистую воду.

    Снималось в: Великобритания, Франция, США/Amazon Prime Instant Video, ACE, Canal+ fr, TF1
    Время просмотра: 01: 31: 41
    Перевод текста: Любительский многоголосый, авторский
    Файл
    Тип видео: MKV
    Качество фильма: HDRip-AVC
    Информация о видео: High@L4.1, ~1009 Кбит/с, 764x320
    Информация о звуке 1: AAC, 2 ch, ~64 Кбит/с (MVO - ParadoxOmskbird Records)
    Информация о звуке 2: AAC, 2 ch, ~64 Кбит/с (AVO - Дмитрий Есарев) - присутствует ненормативная лексика
    Субтитры: Английские
    M/I
    General
    Unique ID : 228453290121091667650230633076416742007 (0xABDE80D3EE2726CFBE3FC1D2130E8277)
    Complete name : F: Крутые.времена.(2016).HDRIP-AVC.-=DoMiNo=-.mkv
    Format : Matroska
    Format version : Version 4/Version 2
    File size : 747 MiB
    Duration : 1 h 31 min
    Overall bit rate : 1 139 kb/s
    Movie name : Крутые времена
    Deion : Джим Дэвис, вернувшись с войны назад в Лос-Анджелес, хочет устроиться в полицию. Но, встретив старых приятелей, он намерен слегка развлечься. Начав помалу, Джим стартует на полную катушку, напомнив всем крутые времена!
    Encoded date : UTC 2016-09-18 15: 42: 57
    Writing application : mkvmerge v8.3.0 (;Over the Horizon;) 64bit
    Writing library : libebml v1.3.1 + libmatroska v1.4.2/Lavf57.41.100
    Cover : Yes
    Attachments : cover.jpg
    ACTORS : Кристиан Бэйл, Фредди Родригес, Ева Лонгория, Чака Форман, Тэмми Трулл, Дж.К. Симмонс, Майкл Монкс, Саманта Бекер, Таня Верафилд, Ноэль Гульеми, показать всех
    COUNTRY : США
    DATE : 2005
    DIRECTOR : Дэвид Эйр
    ENCODING_INFO : MATROSKA, WEBM MKV/H264 X264 VBR-2P 1009kbps Произвольный/AC3 AAC CBR 64kbps HE/AC3 AAC CBR 64kbps HE
    GENRE : боевик, триллер, драма, криминал
    IMDB_RATING : 7.00
    ITUNEXTC : mpaa|R|400|
    ORIGINAL_TITLE : Harsh Times
    PRODUCER : Дэвид Эйр, Андреа Сперлинг, Кристиан Бэйл
    RATING : 7.091
    WRITER : Дэвид Эйр
    Video
    ID : 1
    Format : AVC
    Format/Info : Advanced Video Codec
    Format profile : High@L4.1
    Format settings, CABAC : Yes
    Format settings, ReFrames : 12 frames
    Codec ID : V_MPEG4/ISO/AVC
    Duration : 1 h 31 min
    Bit rate : 1 009 kb/s
    Width : 764 pixels
    Height : 320 pixels
    Display aspect ratio : 2.40: 1
    Frame rate mode : Constant
    Frame rate : 24.000 FPS
    Color space : YUV
    Chroma subsampling : 4: 2: 0
    Bit depth : 8 bits
    Scan type : Progressive
    Bits/(Pixel*Frame) : 0.172
    Stream size : 661 MiB (89%)
    Writing library : x264 core 148 r2705M 3f5ed56
    Encoding settings : cabac=1/ref=12/deblock=1: -3: -3/analyse=0x3: 0x133/me=umh/subme=11/psy=1/psy_rd=1.00: 0.10/mixed_ref=1/me_range=32/chroma_me=1/trellis=2/8x8dct=1/cqm=0/deadzone=21, 11/fast_pskip=0/chroma_qp_offset=-3/threads=5/lookahead_threads=1/sliced_threads=0/nr=0/decimate=1/interlaced=0/bluray_compat=0/constrained_intra=0/bframes=11/b_pyramid=2/b_adapt=2/b_bias=0/direct=3/weightb=1/open_gop=0/weightp=2/keyint=240/keyint_min=24/scenecut=40/intra_refresh=0/rc=2pass/mbtree=0/bitrate=1009/ratetol=1.0/qcomp=0.60/qpmin=0/qpmax=69/qpstep=4/cplxblur=20.0/qblur=0.5/ip_ratio=1.40/pb_ratio=1.30/aq=1: 1.00
    Language : English
    Default : Yes
    Forced : No
    Audio #1
    ID : 2
    Format : AAC
    Format/Info : Advanced Audio Codec
    Format profile : HE-AAC/LC
    Codec ID : A_AAC
    Duration : 1 h 31 min
    Bit rate : 64.0 kb/s
    Channel(s) : 2 channels
    Channel positions : Front: L R
    Sampling rate : 48.0 kHz/24.0 kHz
    Frame rate : 23.438 FPS (1024 spf)
    Compression mode : Lossy
    Stream size : 42.0 MiB (6%)
    Title : MVO ParadoxOmskbird Records
    Language : Russian
    Default : Yes
    Forced : No
    Audio #2
    ID : 3
    Format : AAC
    Format/Info : Advanced Audio Codec
    Format profile : HE-AAC/LC
    Codec ID : A_AAC
    Duration : 1 h 31 min
    Bit rate : 64.0 kb/s
    Channel(s) : 2 channels
    Channel positions : Front: L R
    Sampling rate : 48.0 kHz/24.0 kHz
    Frame rate : 23.438 FPS (1024 spf)
    Compression mode : Lossy
    Stream size : 42.0 MiB (6%)
    Title : AVO- D.ESAREV
    Language : Russian
    Default : No
    Forced : No
    Text #1
    ID : 4
    Format : UTF-8
    Codec ID : S_TEXT/UTF8
    Codec ID/Info : UTF-8 Plain Text
    Duration : 1 h 28 min
    Bit rate : 35 b/s
    Count of elements : 651
    Stream size : 22.9 KiB (0%)
    Title : Full
    Language : English
    Default : Yes
    Forced : No
    Text #2
    ID : 5
    Format : UTF-8
    Codec ID : S_TEXT/UTF8
    Codec ID/Info : UTF-8 Plain Text
    Duration : 1 h 28 min
    Bit rate : 38 b/s
    Count of elements : 762
    Stream size : 24.8 KiB (0%)
    Title : SDH
    Language : English
    Default : No
    Forced : No
    Menu
    00: 00: 00.000 : : 00: 00: 00.000
    00: 08: 06.625 : : 00: 08: 06.625
    00: 16: 39.833 : : 00: 16: 39.833
    00: 24: 20.625 : : 00: 24: 20.625
    00: 33: 04.625 : : 00: 33: 04.625
    00: 41: 03.625 : : 00: 41: 03.625
    00: 48: 37.625 : : 00: 48: 37.625
    00: 57: 03.417 : : 00: 57: 03.417
    01: 07: 59.000 : : 01: 07: 59.000
    01: 16: 54.625 : : 01: 16: 54.625
    01: 21: 43.000 : : 01: 21: 43.000
    01: 25: 26.833 : : 01: 25: 26.833
    Скриншоты


    Онлайн видео Крутые меры


    Размер скачиваемого торрента: 747.00 MB (783286611 Bytes)

    Крутые меры/Bastille Day (2015) HDRip-AVC | L, A
    загрузка...
    Рейтинг →
     (голосов: 1, оценка 4/5, голосовать можно 1 раз )

    Другие торренты по теме:

  • Крутые меры / Bastille Day (2016) HDRip | L1
  • Крутые меры / Bastille Day (2016) BDRip 1080p | L
  • Крутые меры / Bastille Day / 2016 / ЛО / HDRip
  • Крутые меры / Bastille Day / 2016 / ЛО / BDRip (720p)
  • Крутые меры / Bastille Day / 2016 / ПМ / HDRip
  • Крутые меры / Bastille Day / 2016 / ЛО / Blu-Ray Remux (1080p)
  • Крутые меры / Bastille Day (2016) BDRip 720p от ExKinoRay | A
  • Крутые меры / Bastille Day (2016) BDRemux 1080p от ExKinoRay | A


    • Комментарии (0):

      Информация

      Информация

        Посетители, находящиеся в группе Гости, не могут оставлять комментарии в данной новости.

        ↓ Меню



        ↓ Опрос

        А Вы добавили сайт в закладки?
        Да
        Не


        Top 10 за месяц (Фильмы)