.
Авторизация | Регистрация
Хочешь лучшие торренты? Добавь свой email!
Добавить
» » Крутые меры / Bastille Day (2016) BDRip 720p от ExKinoRay | L, A торрент скачать бесплатно




    Крутые меры / Bastille Day (2016) BDRip 720p от ExKinoRay | L, A торрент скачать бесплатно

    Опубликовал: Админ | Дата: 19-09-2016, 05:01 | Просмотров: 69



    Детально о кино
    Русское название: Крутые меры
    Русское название в мировом прокате: Bastille Day
    Создали в: 2016
    Категория жанра: Боевик, драма
    Главный режиссер: Джеймс Уоткинс

    Актеры
    Идрис Эльба, Ричард Мэдден, Келли Райлли, Шарлотта Ле Бон, Анатол Юсеф, Хорхе Леон Мартинес, Карл Фаррер, Хосе Гарсиа, Александр Купер, Эрик Эбони
    О фильме:
    Ловкий карманник Майкл Мэйсон привлекает внимание полиции и спецслужб, когда крадет сумку, содержащую гораздо больше, чем просто бумажник. На его след выходит дерзкий и резкий спецагент ЦРУ Шон Брайар. Вдвоем они становятся мишенью тайной преступной организации и в течение суток должны вывести злоумышленников на чистую воду.

    Снималось в: Великобритания, Франция, США
    Киностудия: Canal+
    Время просмотра: 01: 31: 48
    Перевод текста: Любительский многоголосый (закадровый) | PARADOX OMSKBIRD Records
    Авторский одноголосый (закадровый) | Дмитрий Есарев
    Файл
    Кодек для видео: MPEG-4
    Качество фильма: BDRip 720p
    Информация о видео: 1280x536, 6150 Kbit/s, 24.000 fps
    Информация о звуке:
    Информация о звуке #01: 48 kHz, AC3, 5.1, 640 Kbps | Любительский многоголосый (закадровый) |
    Информация о звуке #02: 48 kHz, DTS, 5.1, 1510 Kbps | Авторский одноголосый (закадровый) | Дмитрий Есарев |
    Информация о звуке #03: 48 kHz, AC3, 5.1, 640 Kbps | Авторский одноголосый (закадровый) | Дмитрий Есарев |
    Информация о звуке #04: 48 kHz, AC3, 5.1, 640 kbps | Оригинал |
    Субтитры: Английские

    MI
    Общее
    Уникальный идентификатор : 246366192250224099721876495286669044979 (0xB9586716F32959B49C68B014B9BA6CF3)
    Полное имя : G: VideoBastille.Day.2016.MVO.AVO.BDRip.720p.ExKinoRay.mkv
    Формат : Matroska
    Версия формата : Version 4/Version 2
    Размер файла : 6, 24 Гбайт
    Продолжительность : 1 ч. 39 м.
    Общий поток : 8936 Кбит/сек
    Название фильма : ***селезень***
    Дата кодирования : UTC 2016-09-18 06: 39: 32
    Программа кодирования : mkvmerge v8.3.0 (;Over the Horizon;) 64bit
    Библиотека кодирования : libebml v1.3.1 + libmatroska v1.4.2
    Видео
    Идентификатор : 1
    Формат : AVC
    Формат/Информация : Advanced Video Codec
    Профиль формата : High@L4.1
    Параметр CABAC формата : Да
    Параметр ReFrames формата : 12 кадров
    Идентификатор кодека : V_MPEG4/ISO/AVC
    Продолжительность : 1 ч. 31 м.
    Битрейт : 6178 Кбит/сек
    Ширина : 1280 пикселей
    Высота : 536 пикселей
    Соотношение сторон : 2, 40: 1
    Режим частоты кадров : Постоянный
    Частота кадров : 24, 000 кадра/сек
    Цветовое пространство : YUV
    Субдискретизация насыщенности : 4: 2: 0
    Битовая глубина : 8 бит
    Тип развёртки : Прогрессивная
    Бит/(Пиксели*Кадры) : 0.375
    Размер потока : 3, 96 Гбайт (63%)
    Заголовок : ***селезень***
    Библиотека кодирования : x264 core 129 r2245 bc13772
    Настройки программы : cabac=1/ref=12/deblock=1: -3: -3/analyse=0x3: 0x133/me=umh/subme=11/psy=1/psy_rd=1.05: 0.05/mixed_ref=1/me_range=32/chroma_me=1/trellis=2/8x8dct=1/cqm=0/deadzone=21, 11/fast_pskip=0/chroma_qp_offset=-3/threads=6/lookahead_threads=1/sliced_threads=0/nr=0/decimate=1/interlaced=0/bluray_compat=0/constrained_intra=0/bframes=8/b_pyramid=2/b_adapt=2/b_bias=0/direct=3/weightb=1/open_gop=0/weightp=2/keyint=250/keyint_min=24/scenecut=40/intra_refresh=0/rc_lookahead=60/rc=2pass/mbtree=1/bitrate=6178/ratetol=1.0/qcomp=0.60/qpmin=0/qpmax=69/qpstep=4/cplxblur=20.0/qblur=0.5/ip_ratio=1.40/aq=1: 0.80
    Язык : English
    Default : Да
    Forced : Нет
    Аудио #1
    Идентификатор : 2
    Формат : AC-3
    Формат/Информация : Audio Coding 3
    Расширение режима : CM (complete main)
    Параметр Endianness формата : Big
    Идентификатор кодека : A_AC3
    Продолжительность : 1 ч. 39 м.
    Вид битрейта : Постоянный
    Битрейт : 640 Кбит/сек
    Каналы : 6 каналов
    Расположение каналов : Front: L C R, Side: L R, LFE
    Частота : 48, 0 КГц
    Частота кадров : 31, 250 кадров/сек (1536 spf)
    Метод сжатия : С потерями
    Размер потока : 458 Мбайт (7%)
    Заголовок : MVO ParadoxOmskbird Records
    Язык : Russian
    Default : Да
    Forced : Нет
    Аудио #2
    Идентификатор : 3
    Формат : DTS
    Формат/Информация : Digital Theater Systems
    Режим : 16
    Параметр Endianness формата : Big
    Идентификатор кодека : A_DTS
    Продолжительность : 1 ч. 32 м.
    Вид битрейта : Постоянный
    Битрейт : 1509 Кбит/сек
    Каналы : 6 каналов
    Расположение каналов : Front: L C R, Side: L R, LFE
    Частота : 48, 0 КГц
    Частота кадров : 93, 750 кадра/сек (512 spf)
    Битовая глубина : 24 бит
    Метод сжатия : С потерями
    Размер потока : 995 Мбайт (16%)
    Заголовок : AVO-DTS D.ESAREV
    Язык : Russian
    Default : Нет
    Forced : Нет
    Аудио #3
    Идентификатор : 4
    Формат : AC-3
    Формат/Информация : Audio Coding 3
    Расширение режима : CM (complete main)
    Параметр Endianness формата : Big
    Идентификатор кодека : A_AC3
    Продолжительность : 1 ч. 32 м.
    Вид битрейта : Постоянный
    Битрейт : 640 Кбит/сек
    Каналы : 6 каналов
    Расположение каналов : Front: L C R, Side: L R, LFE
    Частота : 48, 0 КГц
    Частота кадров : 31, 250 кадров/сек (1536 spf)
    Метод сжатия : С потерями
    Размер потока : 422 Мбайт (7%)
    Заголовок : AVO-AC3 D.ESAREV
    Язык : Russian
    Default : Нет
    Forced : Нет
    Аудио #4
    Идентификатор : 5
    Формат : AC-3
    Формат/Информация : Audio Coding 3
    Расширение режима : CM (complete main)
    Параметр Endianness формата : Big
    Идентификатор кодека : A_AC3
    Продолжительность : 1 ч. 39 м.
    Вид битрейта : Постоянный
    Битрейт : 640 Кбит/сек
    Каналы : 6 каналов
    Расположение каналов : Front: L C R, Side: L R, LFE
    Частота : 48, 0 КГц
    Частота кадров : 31, 250 кадров/сек (1536 spf)
    Метод сжатия : С потерями
    Размер потока : 458 Мбайт (7%)
    Заголовок : Original
    Язык : English
    Default : Нет
    Forced : Нет
    Текст #1
    Идентификатор : 6
    Формат : UTF-8
    Идентификатор кодека : S_TEXT/UTF8
    Идентификатор кодека/Информация : UTF-8 Plain Text
    Продолжительность : 1 ч. 28 м.
    Битрейт : 35 бит/сек
    Count of elements : 651
    Размер потока : 22, 9 Кбайт (0%)
    Заголовок : Full
    Язык : English
    Default : Нет
    Forced : Нет
    Текст #2
    Идентификатор : 7
    Формат : UTF-8
    Идентификатор кодека : S_TEXT/UTF8
    Идентификатор кодека/Информация : UTF-8 Plain Text
    Продолжительность : 1 ч. 28 м.
    Битрейт : 38 бит/сек
    Count of elements : 762
    Размер потока : 24, 8 Кбайт (0%)
    Заголовок : SDH
    Язык : English
    Default : Нет
    Forced : Нет
    Меню
    00: 00: 00.000 : en: 00: 00: 00.000
    00: 08: 06.625 : en: 00: 08: 06.625
    00: 16: 39.833 : en: 00: 16: 39.833
    00: 24: 20.625 : en: 00: 24: 20.625
    00: 33: 04.625 : en: 00: 33: 04.625
    00: 41: 03.625 : en: 00: 41: 03.625
    00: 48: 37.625 : en: 00: 48: 37.625
    00: 57: 03.417 : en: 00: 57: 03.417
    01: 07: 59.000 : en: 01: 07: 59.000
    01: 16: 54.625 : en: 01: 16: 54.625
    01: 21: 43.000 : en: 01: 21: 43.000
    01: 25: 26.833 : en: 01: 25: 26.833
    Внимание!
    В авторском переводе присутствует ненормативная лексика.


    Релиз подготовил: Автор релиза:

    Онлайн видео Крутые меры


    Размер скачиваемого торрента: 6.24 GB (6698731639 Bytes)

    Крутые меры/Bastille Day (2016) BDRip 720p от ExKinoRay | L, A
    загрузка...
    Рейтинг →
     (голосов: 1, оценка 4/5, голосовать можно 1 раз )

    Другие торренты по теме:

  • Крутые меры / Bastille Day (2016) HDRip | L1
  • Крутые меры / Bastille Day (2016) BDRip 1080p | L
  • Крутые меры / Bastille Day / 2016 / ЛО / HDRip
  • Крутые меры / Bastille Day / 2016 / ЛО / BDRip (720p)
  • Крутые меры / Bastille Day / 2016 / ПМ / HDRip
  • Крутые меры / Bastille Day / 2016 / ЛО / Blu-Ray Remux (1080p)
  • Крутые меры / Bastille Day (2016) BDRip 720p от ExKinoRay | A
  • Крутые меры / Bastille Day (2016) BDRemux 1080p от ExKinoRay | A


    • Комментарии (0):

      Информация

      Информация

        Посетители, находящиеся в группе Гости, не могут оставлять комментарии в данной новости.

        ↓ Меню



        ↓ Опрос

        А Вы добавили сайт в закладки?
        Да
        Не


        Top 10 за месяц (Фильмы)