.
Авторизация | Регистрация
Хочешь лучшие торренты? Добавь свой email!
Добавить
» » Папашина армия / Dads Army (2016) BDRemux 1080p от ExKinoRay | Лицензия торрент скачать бесплатно




    Папашина армия / Dads Army (2016) BDRemux 1080p от ExKinoRay | Лицензия торрент скачать бесплатно

    Опубликовал: Админ | Дата: 19-09-2016, 05:01 | Просмотров: 64



    Детально о кино
    Русское название: Папашина армия
    Русское название в мировом прокате: Dad;s Army
    Создали в: 2016
    Категория жанра: Комедия
    Главный режиссер: Оливер Паркер

    Актеры
    Кэтрин Зета-Джонс, Билл Найи, Майкл Гэмбон, Тоби Джонс, Сара Ланкашир, Марк Гейтисс, Дэниэл Мейс, Элисон Стэдмен, Том Кортни, Блейк Харрисон
    О фильме:
    Вторая мировая война близится к концу. Бравому отряду из Уолмингтона приходится столкнуться с симпатичной журналисткой и по совместительству немецкой шпионкой.

    Снималось в: Великобритания
    Киностудия: DJ Films
    Время просмотра: 01: 39: 52
    Перевод текста: Дублированный | Лицензия Blu-Ray CEE
    Файл
    Кодек для видео: MPEG-4
    Качество фильма: BDRemux 1080p
    Информация о видео: 1920x1080, 26.7 Mbit/s, 23.976 fps
    Информация о звуке:
    Информация о звуке #01: 48 kHz, DTS, 5.1, 768 Kbps | Дублированный | Лицензия |
    Информация о звуке #01: 48 kHz, AC3, 5.1, 448 Kbps | Дублированный | Лицензия |
    Информация о звуке #02: 48 kHz, DTS-HD MA, 5.1, 3581 kbps | Оригинал |
    Субтитры: Английские

    MI
    Общее
    Уникальный идентификатор : 249768957014816752813831862604939180955 (0xBBE7C0586DD6F5D08AEE7E716BE8BB9B)
    Полное имя : G: VideoDad;s.Army.2016.BDREMUX.1080p.ExKinoRay.mkv
    Формат : Matroska
    Версия формата : Version 4/Version 2
    Размер файла : 22, 0 Гбайт
    Продолжительность : 1 ч. 39 м.
    Режим общего битрейта : Переменный
    Общий поток : 31, 5 Мбит/сек
    Название фильма : build by ***селезень***
    Дата кодирования : UTC 2016-09-18 04: 46: 30
    Программа кодирования : mkvmerge v8.3.0 (;Over the Horizon;) 64bit
    Библиотека кодирования : libebml v1.3.1 + libmatroska v1.4.2
    Видео
    Идентификатор : 1
    Формат : AVC
    Формат/Информация : Advanced Video Codec
    Профиль формата : High@L4.1
    Параметр CABAC формата : Да
    Параметр ReFrames формата : 4 кадра
    Идентификатор кодека : V_MPEG4/ISO/AVC
    Продолжительность : 1 ч. 39 м.
    Вид битрейта : Переменный
    Битрейт : 26, 7 Мбит/сек
    Максимальный битрейт : 35, 0 Мбит/сек
    Ширина : 1920 пикселей
    Высота : 1080 пикселей
    Соотношение сторон : 16: 9
    Режим частоты кадров : Постоянный
    Частота кадров : 23, 976 (24000/1001) кадра/сек
    Цветовое пространство : YUV
    Субдискретизация насыщенности : 4: 2: 0
    Битовая глубина : 8 бит
    Тип развёртки : Прогрессивная
    Бит/(Пиксели*Кадры) : 0.537
    Размер потока : 18, 6 Гбайт (85%)
    Заголовок : build by ***селезень***
    Язык : English
    Default : Да
    Forced : Нет
    Аудио #1
    Идентификатор : 2
    Формат : DTS
    Формат/Информация : Digital Theater Systems
    Режим : 16
    Параметр Endianness формата : Big
    Идентификатор кодека : A_DTS
    Продолжительность : 1 ч. 39 м.
    Вид битрейта : Постоянный
    Битрейт : 768 Кбит/сек
    Каналы : 6 каналов
    Расположение каналов : Front: L C R, Side: L R, LFE
    Частота : 48, 0 КГц
    Частота кадров : 93, 750 кадра/сек (512 spf)
    Битовая глубина : 24 бит
    Метод сжатия : С потерями
    Размер потока : 549 Мбайт (2%)
    Заголовок : Dub-DTS Blu-Ray CEE
    Язык : Russian
    Default : Да
    Forced : Нет
    Аудио #2
    Идентификатор : 3
    Формат : AC-3
    Формат/Информация : Audio Coding 3
    Расширение режима : CM (complete main)
    Параметр Endianness формата : Big
    Идентификатор кодека : A_AC3
    Продолжительность : 1 ч. 39 м.
    Вид битрейта : Постоянный
    Битрейт : 448 Кбит/сек
    Каналы : 6 каналов
    Расположение каналов : Front: L C R, Side: L R, LFE
    Частота : 48, 0 КГц
    Частота кадров : 31, 250 кадров/сек (1536 spf)
    Метод сжатия : С потерями
    Размер потока : 320 Мбайт (1%)
    Заголовок : Dub-AC3 Blu-Ray CEE
    Язык : Russian
    Default : Нет
    Forced : Нет
    Аудио #3
    Идентификатор : 4
    Формат : DTS
    Формат/Информация : Digital Theater Systems
    Профиль формата : MA/Core
    Режим : 16
    Параметр Endianness формата : Big
    Идентификатор кодека : A_DTS
    Продолжительность : 1 ч. 39 м.
    Вид битрейта : Переменный/Постоянный
    Битрейт : 3581 Кбит/сек/1509 Кбит/сек
    Каналы : 6 каналов
    Расположение каналов : Front: L C R, Side: L R, LFE
    Частота : 48, 0 КГц
    Частота кадров : 93, 750 кадра/сек (512 spf)
    Битовая глубина : 24 бит
    Метод сжатия : Без потерь/Lossy
    Размер потока : 2, 50 Гбайт (11%)
    Заголовок : Original
    Язык : English
    Default : Нет
    Forced : Нет
    Текст #1
    Идентификатор : 5
    Формат : UTF-8
    Идентификатор кодека : S_TEXT/UTF8
    Идентификатор кодека/Информация : UTF-8 Plain Text
    Продолжительность : 1 ч. 37 м.
    Битрейт : 62 бит/сек
    Count of elements : 1498
    Размер потока : 44, 3 Кбайт (0%)
    Заголовок : Full
    Язык : English
    Default : Нет
    Forced : Нет
    Текст #2
    Идентификатор : 6
    Формат : UTF-8
    Идентификатор кодека : S_TEXT/UTF8
    Идентификатор кодека/Информация : UTF-8 Plain Text
    Продолжительность : 1 ч. 38 м.
    Битрейт : 67 бит/сек
    Count of elements : 1704
    Размер потока : 48, 8 Кбайт (0%)
    Заголовок : SDH
    Язык : English
    Default : Нет
    Forced : Нет
    Меню
    00: 00: 00.000 : en: Chapter 01
    00: 03: 59.906 : en: Chapter 02
    00: 07: 50.220 : en: Chapter 03
    00: 14: 23.071 : en: Chapter 04
    00: 18: 36.574 : en: Chapter 05
    00: 23: 29.992 : en: Chapter 06
    00: 27: 39.449 : en: Chapter 07
    00: 32: 51.261 : en: Chapter 08
    00: 38: 16.586 : en: Chapter 09
    00: 43: 58.177 : en: Chapter 10
    00: 47: 32.433 : en: Chapter 11
    00: 54: 25.721 : en: Chapter 12
    00: 57: 55.305 : en: Chapter 13
    01: 02: 06.806 : en: Chapter 14
    01: 06: 10.884 : en: Chapter 15
    01: 11: 01.549 : en: Chapter 16
    01: 17: 48.247 : en: Chapter 17
    01: 23: 16.783 : en: Chapter 18
    01: 31: 48.294 : en: Chapter 19
    01: 35: 52.705 : en: Chapter 20


    Релиз подготовил: Автор релиза:

    Онлайн видео Папашина армия


    Размер скачиваемого торрента: 21.98 GB (23596931345 Bytes)

    Папашина армия/Dads Army (2016) BDRemux 1080p от ExKinoRay | Лицензия
    загрузка...
    Рейтинг →
     (голосов: 1, оценка 5/5, голосовать можно 1 раз )

    Другие торренты по теме:

  • Папашина армия (Старые вояки) (2 сезон: 1-3 серии из 3) / Dad's Army / 1969 / СТ / DVDRip
  • Папашина армия / Dads Army (2016) HDRip от MegaPeer | Лицензия
  • Папашина армия / Dads Army (2016) HDRip от MegaPeer | Лицензия
  • Папашина армия / Dads Army (2016) BDRip 720p от ExKinoRay | Лицензия
  • Папашина армия / Dads Army (2016) BDRip 720p от ExKinoRay | Лицензия
  • Папашина армия / Dads Army (2015) BDRip-AVC от HELLYWOOD | Лицензия


    • Комментарии (0):

      Информация

      Информация

        Посетители, находящиеся в группе Гости, не могут оставлять комментарии в данной новости.

        ↓ Меню



        ↓ Опрос

        А Вы добавили сайт в закладки?
        Да
        Не


        Top 10 за месяц (Фильмы)