.
Авторизация | Регистрация
Хочешь лучшие торренты? Добавь свой email!
Добавить
» » Что творят мужчины! 2 (2015) DVDRip | Лицензия торрент скачать бесплатно




    Что творят мужчины! 2 (2015) DVDRip | Лицензия торрент скачать бесплатно

    Опубликовал: Админ | Дата: 19-09-2016, 05:01 | Просмотров: 59



    Детально о кино
    Русское название: Что творят мужчины! 2
    Создали в: 2015
    Категория жанра: Комедия
    Главный режиссер: Сарик Андреасян

    Актеры
    Таир Мамедов, Роман Юнусов, Дмитрий Кожома, Никита Джигурда, Анастасия Задорожная, Пётр Винс, Вадим Цаллати, Наталья Рудова, Елена Борщёва, Елена Беркова

    Сюжет фильма

    России угрожает страшная опасность! Бывший сисадмин Секретного Военного Подразделения, уехавший в Америку, запустил вирус для взлома системы безопасности, что грозит всем нам страшными последствиями. Чтобы остановить программу, нужен пароль — слово, которое произносит бывшая подружка хакера, когда испытывает оргазм. Это всего лишь одно слово, но за последний год у злодея было десяток подружек, и с каждой был секс… и все они в Лос-Анджелесе! Спасти страну призваны главные специалисты по женщинам — Даниэль, Гоша и Виталик.

    Снималось в: Россия
    Киностудия: Enjoy Movies
    Время просмотра: 01: 21: 45
    Перевод текста: Не требуется Лицензия
    Файл
    Качество фильма: DVDRip
    Кодек для видео: XviD
    Информация о видео: 688x288 (2, 40: 1), 25 fps, XviD ~1139 kbps avg, 0.230 bit/pixel
    Информация о звуке: 48 kHz, MP3, 2 ch, ~128.00 kbps avg | русский
    Субтитры: Отсутствуют
    Инфо-файл
    Общее
    Полное имя : Что творят мужчины! 2.2015.O.DVDRip.745Mb.avi
    Формат : AVI
    Формат/Информация : Audio Video Interleave
    Размер файла : 746 Мбайт
    Продолжительность : 1 ч. 21 м.
    Общий поток : 1276 Кбит/сек
    Название фильма : Что творят мужчины! 2 (2015)
    Режиссёр : by stillet
    Программа кодирования : VirtualDubMod 1.5.10.3 (build 2550/release)
    Библиотека кодирования : VirtualDubMod build 2550/release
    Видео
    Идентификатор : 0
    Формат : MPEG-4 Visual
    Профиль формата : Advanced Simple@L5
    Параметр BVOP формата : 2
    Параметр QPel формата : Нет
    Параметр GMC формата : Без точки перехода
    Параметр матрицы формата : Default (MPEG)
    Режим смешивания : Сжатый битовый поток
    Идентификатор кодека : XVID
    Идентификатор кодека/Подсказка : XviD
    Продолжительность : 1 ч. 21 м.
    Битрейт : 1139 Кбит/сек
    Ширина : 688 пикселей
    Высота : 288 пикселей
    Соотношение сторон : 2, 40: 1
    Частота кадров : 25, 000 кадров/сек
    Цветовое пространство : YUV
    Субдискретизация насыщенности : 4: 2: 0
    Битовая глубина : 8 бит
    Тип развёртки : Прогрессивная
    Метод сжатия : С потерями
    Бит/(Пиксели*Кадры) : 0.230
    Размер потока : 666 Мбайт (89%)
    Библиотека кодирования : XviD 73
    Аудио
    Идентификатор : 1
    Формат : MPEG Audio
    Версия формата : Version 1
    Профиль формата : Layer 3
    Режим : Joint stereo
    Расширение режима : MS Stereo
    Идентификатор кодека : 55
    Идентификатор кодека/Подсказка : MP3
    Продолжительность : 1 ч. 21 м.
    Вид битрейта : Постоянный
    Битрейт : 128 Кбит/сек
    Каналы : 2 канала
    Частота : 48, 0 КГц
    Метод сжатия : С потерями
    Размер потока : 74, 8 Мбайт (10%)
    Выравнивание : Соединение по промежуткам
    Продолжительность промежутка : 40 мс. (1, 00 видеокадр)
    Время предзагрузки промежутка : 504 мс.
    Скриншоты

    Залил: admiralkz

    Онлайн видео Что творят мужчины! 2 (2015) DVDRip


    Размер скачиваемого торрента: 746.39 MB (782645248 Bytes)

    Что творят мужчины! 2 (2015) DVDRip | Лицензия
    загрузка...
    Рейтинг →
     (голосов: 1, оценка 3/5, голосовать можно 1 раз )

    Другие торренты по теме:

  • Что творят мужчины! 2 (2015) скачать через торрент бесплатно
  • Что творят мужчины! 2 (2015) WEBRip
  • Что творят мужчины! 2 (2015) WEB-DLRip | iTunes
  • Что творят мужчины! 2 (2015) WEB-DLRip
  • Что творят мужчины! 2 (2015) DVDRip-AVC от ExKinoRay | Лицензия
  • Что творят немецкие мужчины / Mann tut was Mann kann (2012) HDRip | L1
  • Что творят немецкие мужчины / Mann tut was Mann kann (2012) HDRip | Звук с TS
  • Что творят немецкие мужчины / Mann tut was Mann kann (2012) HDRip от INTERCINEMA | Чистый звук скачать через торрент бесплатно


    • Комментарии (0):

      Информация

      Информация

        Посетители, находящиеся в группе Гости, не могут оставлять комментарии в данной новости.

        ↓ Меню



        ↓ Опрос

        А Вы добавили сайт в закладки?
        Да
        Не


        Top 10 за месяц (Фильмы)