.
Авторизация | Регистрация
» » Лето на восьмерых / Summer of 8 (2016) WEB-DLRip от Portablius | L2 скачать торрент бесплатно




    Лето на восьмерых / Summer of 8 (2016) WEB-DLRip от Portablius | L2 скачать торрент бесплатно

    Опубликовал: Админ | Дата: 21-09-2016, 05:00 | Просмотров: 62



    Детально о кино
    Русское название: Лето на восьмерых
    Русское название в мировом прокате: Summer of 8
    Создали в: 2016
    Категория жанра: Комедия, мелодрама, драма
    Главный режиссер: Райан Шварц

    Актеры
    Картер Дженкинс, Мэтт Шивли, Шелли Хенниг, Соня Уолгер, Майкл Грант, Бэйли Ноубл, Рэйчел ДиПилло, Натали Холл

    Сюжет фильма
    Восемь лучших друзей наслаждаются последними деньками на пляже под солнечными лучами, перед разлукой, связанную со вступлением во взрослую жизнь и поступлением в колледж.

    Снималось в: США
    Киностудия: Organically Grown Productions, Provenance Pictures, TrustFall Films
    Время просмотра: 01: 29: 32
    Перевод текста: Любительский (двухголосый, закадровый) (RecentFilms)
    Субтитры: Нет
    Примечание: Присутствует реклама!
    Семпл
    Файл
    Кодек для видео: XviD
    Качество фильма: WEB-DLRip
    Информация о видео: 688x288 (2.39: 1), 23.976 fps, XviD build 73 ~1022 kbps avg, 0.22 bit/pixel
    Информация о звуке: 48 kHz, MPEG Layer 3, 2 ch, ~128.00 kbps avg
    MediaInfo
    Общее
    Полное имя : Summer.of.8.2016.L2.WEB-DLRip.ot.Portablius.avi
    Формат : AVI
    Формат/Информация : Audio Video Interleave
    Размер файла : 743 Мбайт
    Продолжительность : 1 ч. 29 м.
    Общий поток : 1160 Кбит/сек
    Программа кодирования : VirtualDubMod 1.5.10.3 | www.virtualdub-fr.org || (build 2550/release)
    Библиотека кодирования : VirtualDubMod build 2550/release
    Видео
    Идентификатор : 0
    Формат : MPEG-4 Visual
    Профиль формата : Advanced Simple@L5
    Параметр BVOP формата : 1
    Параметр QPel формата : Нет
    Параметр GMC формата : Без точки перехода
    Параметр матрицы формата : Выборочная
    Идентификатор кодека : XVID
    Идентификатор кодека/Подсказка : XviD
    Продолжительность : 1 ч. 29 м.
    Битрейт : 1023 Кбит/сек
    Ширина : 688 пикселей
    Высота : 288 пикселей
    Соотношение сторон : 2, 40: 1
    Частота кадров : 23, 976 (23976/1000) кадра/сек
    Цветовое пространство : YUV
    Субдискретизация насыщенности : 4: 2: 0
    Битовая глубина : 8 бит
    Тип развёртки : Прогрессивная
    Метод сжатия : С потерями
    Бит/(Пиксели*Кадры) : 0.215
    Размер потока : 655 Мбайт (88%)
    Библиотека кодирования : XviD 73
    Аудио
    Идентификатор : 1
    Формат : MPEG Audio
    Версия формата : Version 1
    Профиль формата : Layer 3
    Идентификатор кодека : 55
    Идентификатор кодека/Подсказка : MP3
    Продолжительность : 1 ч. 29 м.
    Вид битрейта : Постоянный
    Битрейт : 128 Кбит/сек
    Каналы : 2 канала
    Частота : 48, 0 КГц
    Метод сжатия : С потерями
    Размер потока : 82, 0 Мбайт (11%)
    Выравнивание : Соединение по промежуткам
    Продолжительность промежутка : 42 мс. (1, 00 видеокадр)
    Время предзагрузки промежутка : 504 мс.
    Библиотека кодирования : LAME3.99r
    Залил: Evgen Portable

    Онлайн видео Лето на восьмерых


    Размер скачиваемого торрента: 743.12 MB (779216896 Bytes)


    Лето на восьмерых/Summer of 8 (2016) WEB-DLRip от Portablius | L2
    загрузка...
    Рейтинг →
     (голосов: 1, оценка 3/5, голосовать можно 1 раз )

    Другие торренты по теме:



      Комментарии (0):

      Информация

      Информация

        Посетители, находящиеся в группе Гости, не могут оставлять комментарии в данной новости.

        ↓ Меню



        ↓ Опрос

        А Вы добавили сайт в закладки?
        Да
        Не


        Top 10 за неделю (Фильмы)