.
Авторизация | Регистрация
Хочешь лучшие торренты? Добавь свой email!
Добавить
» » Болеро / Bolero (1984) DVD-9 от NovaLan | A торрент скачать бесплатно




    Болеро / Bolero (1984) DVD-9 от NovaLan | A торрент скачать бесплатно

    Опубликовал: Админ | Дата: 21-09-2016, 05:00 | Просмотров: 68



    Детально о кино
    Русское название: Болеро
    Русское название в мировом прокате: Bolero
    Создали в: 1984
    Категория жанра: Мелодрама, эротика
    Главный режиссер: Джон Дерек

    Актеры
    Бо Дерек, Джордж Кеннеди, Андреа Оккипинти, Ана Обрегон, Оливия д’Або, Грег Бенсен, Йен Кокрейн, Мирта Миллер, Микки Нокс, Пол Стэйси
    Описание: Привлекательная американка ищет идеального мужчину. Среди претендентов оказываются самые разные от арабского шейха до местного матадора…
    Снималось в: США
    Киностудия: City Films, Golan-Globus Productions Ltd.
    Время просмотра: 01: 44: 43
    Перевод текста: Авторский (Михалев)
    Файл
    Кодек для видео: MPEG-2
    Качество фильма: DVD-9
    Информация о видео: MPEG2, NTSC 16: 9 (720x480@853x480) VBR, 23, 976 кадра/сек
    Информация о звуке: Русский/Английский DD 2.0 (192 Kbps)

    Меню
    DVDInfo

    Title:
    Size: 5.14 Gb ( 5 391 164 KBytes ) - DVD-9
    Enabled regions: 1, 2, 3, 4, 5, 6, 7, 8
    VTS_01 :
    Play Length: 01: 44: 43
    Video: NTSC 16: 9 (720x480) VBR, Auto PanScan
    Audio:
    Russian (Dolby AC3, 2 ch)
    English (Dolby AC3, 2 ch)
    Menu Video:
    NTSC 4: 3 (704x480) VBR
    Menu English Language Unit :
    Root Menu
    MediaInfo

    Общее
    Полное имя : D: ААА2БОЛЕРОVIDEO_TSVTS_01_1.VOB
    Формат : MPEG-PS
    Размер файла : 1000 Мбайт
    Продолжительность : 19 м.
    Режим общего битрейта : Переменный
    Общий поток : 7200 Кбит/сек
    Видео
    Идентификатор : 224 (0xE0)
    Формат : MPEG Video
    Версия формата : Version 2
    Профиль формата : Main@Main
    Параметр BVOP формата : Да
    Параметр матрицы формата : По умолчанию
    Параметр GOP формата : M=3, N=12
    Продолжительность : 19 м.
    Вид битрейта : Переменный
    Битрейт : 6673 Кбит/сек
    Максимальный битрейт : 8640 Кбит/сек
    Ширина : 720 пикселей
    Высота : 480 пикселей
    Соотношение сторон : 16: 9
    Частота кадров : 23, 976 кадра/сек
    Стандарт вещания : NTSC
    Цветовое пространство : YUV
    Субдискретизация насыщенности : 4: 2: 0
    Битовая глубина : 8 бит
    Тип развёртки : Прогрессивная
    Порядок развёртки : 2: 3 Pulldown
    Метод сжатия : С потерями
    Бит/(Пиксели*Кадры) : 0.805
    TimeCode_FirstFrame : 00: 00: 00;00
    TimeCode_Source : Group of pictures t_head
    Размер потока : 927 Мбайт (93%)
    Аудио #1
    Идентификатор : 189 (0xBD)-128 (0x80)
    Формат : AC-3
    Формат/Информация : Audio Coding 3
    Расширение режима : CM (complete main)
    Параметр Endianness формата : Big
    Режим смешивания : DVD-Video
    Продолжительность : 19 м.
    Вид битрейта : Постоянный
    Битрейт : 192 Кбит/сек
    Каналы : 2 канала
    Расположение каналов : Front: L R
    Частота : 48, 0 КГц
    Битовая глубина : 16 бит
    Метод сжатия : С потерями
    Размер потока : 26, 7 Мбайт (3%)
    Аудио #2
    Идентификатор : 189 (0xBD)-129 (0x81)
    Формат : AC-3
    Формат/Информация : Audio Coding 3
    Расширение режима : CM (complete main)
    Параметр Endianness формата : Big
    Режим смешивания : DVD-Video
    Продолжительность : 19 м.
    Вид битрейта : Постоянный
    Битрейт : 192 Кбит/сек
    Каналы : 2 канала
    Расположение каналов : Front: L R
    Частота : 48, 0 КГц
    Битовая глубина : 16 бит
    Метод сжатия : С потерями
    Размер потока : 26, 7 Мбайт (3%)
    Меню
    Скриншоты



    Релиз:
    Залил: YArl

    Онлайн видео Болеро


    Размер скачиваемого торрента: 5.14 GB (5520551936 Bytes)

    Болеро/Bolero (1984) DVD-9 от NovaLan | A
    загрузка...
    Рейтинг →
     (голосов: 1, оценка 3/5, голосовать можно 1 раз )

    Другие торренты по теме:



      Комментарии (0):

      Информация

      Информация

        Посетители, находящиеся в группе Гости, не могут оставлять комментарии в данной новости.

        ↓ Меню



        ↓ Опрос

        А Вы добавили сайт в закладки?
        Да
        Не


        Top 10 за месяц (Фильмы)