.
Авторизация | Регистрация
» » Легенда Лонгвуда / The Legend of Longwood (2014) HDTVRip | P скачать торрент бесплатно




    Легенда Лонгвуда / The Legend of Longwood (2014) HDTVRip | P скачать торрент бесплатно

    Опубликовал: Админ | Дата: 21-09-2016, 05:00 | Просмотров: 58



    Детально о кино
    Русское название: Легенда Лонгвуда
    Русское название в мировом прокате: The Legend of Longwood
    Создали в: 2014
    Категория жанра: драма, приключения, семейный, фэнтези
    Главный режиссер: Лиза Мулкахи

    Актеры
    Люси Мортон, Лоркан Боннер, Брендан Конрой, Лоркан Кранич, Стивен Кромуэлл, Кейт Гилмор, Фиона Глэскотт, Скотт Грэхэм, Бен Харт, Арт Кернс, Шана Керслэйк, Аарон Кинселла, Шон Махон, Мириам Маргулис, Текла Рютен

    Сюжет фильма

    12-летняя Микки Миллер переезжает из Нью-Йорка в маленький городок в Ирландии. И хотя поначалу ей там совсем не нравится, со временем она узнаёт, что поселение окружает клубок тайн, и только она может разрушить проклятие Лонгвуда.

    Создали в: Нидерланды, Ирландия, Германия/Fish Blowing Bubbles, Grand Pictures
    Время просмотра: 01: 34: 16
    Перевод текста: профессиональный (многолосый закадровый) официальный звук
    Файл
    Качество фильма: HDTVRip
    Тип видео: AVI
    Информация о видео: XviD, 720x304 (2.35: 1), 25.000 fps, 1874 kbps, 0.342 bit/pixel
    Информация о звуке: русский, AC3 2.0, 48 kHz, 192 kbps
    MediaInfo
    Формат : AVI
    Формат/Информация : Audio Video Interleave
    Размер файла : 1, 37 Гбайт
    Продолжительность : 1 ч. 34 м.
    Общий поток : 2076 Кбит/сек
    Программа кодирования : VirtualDubMod 1.5.10.2 (build 2540/release)
    Библиотека кодирования : VirtualDubMod build 2540/release
    Видео
    Идентификатор : 0
    Формат : MPEG-4 Visual
    Профиль формата : Advanced Simple@L5
    Параметр BVOP формата : 2
    Параметр QPel формата : Нет
    Параметр GMC формата : Без точки перехода
    Параметр матрицы формата : Default (MPEG)
    Идентификатор кодека : XVID
    Идентификатор кодека/Подсказка : XviD
    Продолжительность : 1 ч. 34 м.
    Битрейт : 1874 Кбит/сек
    Ширина : 720 пикселей
    Высота : 304 пикселя
    Соотношение сторон : 2, 35: 1
    Частота кадров : 25, 000 кадров/сек
    Цветовое пространство : YUV
    Субдискретизация насыщенности : 4: 2: 0
    Битовая глубина : 8 бит
    Тип развёртки : Прогрессивная
    Метод сжатия : С потерями
    Бит/(Пиксели*Кадры) : 0.342
    Размер потока : 1, 23 Гбайт (90%)
    Библиотека кодирования : XviD 1.2.1 (UTC 2008-12-04)
    Аудио
    Идентификатор : 1
    Формат : AC-3
    Формат/Информация : Audio Coding 3
    Расширение режима : CM (complete main)
    Параметр Endianness формата : Big
    Идентификатор кодека : 2000
    Продолжительность : 1 ч. 34 м.
    Вид битрейта : Постоянный
    Битрейт : 192 Кбит/сек
    Каналы : 2 канала
    Расположение каналов : Front: L R
    Частота : 48, 0 КГц
    Метод сжатия : С потерями
    Размер потока : 129 Мбайт (9%)
    Выравнивание : Разделение по промежуткам
    Продолжительность промежутка : 40 мс. (1, 00 видеокадр)
    Время предзагрузки промежутка : 500 мс.
    Скриншоты

    Залил: makkaronni

    Онлайн видео Легенда Лонгвуда


    Размер скачиваемого торрента: 1.37 GB (1467437057 Bytes)

    Легенда Лонгвуда/The Legend of Longwood (2014) HDTVRip | P
    загрузка...
    Рейтинг →
     (голосов: 1, оценка 4/5, голосовать можно 1 раз )

    Другие торренты по теме:

  • Иной мир – легенда Святых Рыцарей / Isekai no Seikishi Monogatari (2009) BDRip 1080 | KRT L1 торрент скачать бесплатно
  • Легенды Про... - Две Стороны Одной Медали (2012) MP3 от AGR - Generalfilm торрент скачать бесплатно
  • Городские легенды 2: Последний отрезок / Urban Legends: Final Cut (2000) DVDRip торрент скачать бесплатно
  • Легенды ретро FM (2013) HDTVRip торрент скачать бесплатно
  • Легенды ретро FM (2013) HDTV 1080i торрент скачать бесплатно
  • Священные Легенды: Самайн. Коллекционное Издание (2013) PC торрент скачать бесплатно
  • Кулак легенды / Fist of Legend / Jing wu ying xiong (1994) HDRip | P торрент скачать бесплатно
  • Священные легенды: Тамплиеры / Hallowed Legends: The Templar CE (2011) PC торрент скачать бесплатно


    • Комментарии (0):

      Информация

      Информация

        Посетители, находящиеся в группе Гости, не могут оставлять комментарии в данной новости.

        ↓ Меню



        ↓ Опрос

        А Вы добавили сайт в закладки?
        Да
        Не


        Top 10 за неделю (Фильмы)