.
Авторизация | Регистрация
» » Ким Сон-даль / Bongyi Kimseondal (2016) WEB-DLRip-AVC | L скачать торрент бесплатно




    Ким Сон-даль / Bongyi Kimseondal (2016) WEB-DLRip-AVC | L скачать торрент бесплатно

    Опубликовал: Админ | Дата: 23-09-2016, 05:00 | Просмотров: 35



    Детально о кино
    Русское название: Ким Сон-даль
    Русское название в мировом прокате: Bongyi Kimseondal
    Создали в: 2016
    Категория жанра: Комедия, история, драма
    Главный режиссер: Тэ Мин Пак

    Актеры
    Сын Хо Ю, Чжэ Хён Чо, Чан Сок Ко, Ми Ран Ра, Мин Сок Ким (I), У Чжин Юн, Е Чжи Со, Сок Хо Чон

    Сюжет фильма

    В Чосоне орудует “Свирепый”, “Безжалостный” вор по прозвищу “Господин Пон-йи”. Точнее, таким его считают стражи страны. На деле же, преступника зовут Ким Ин-он, он юноша, который обманывает и грабит людей, чтобы жить в своё удовольствие. Ему помогает низкорослый, упитанный мужчина средних лет. Они решаются на самую красивую и крупную аферу в своей жизни – продажу реки!
    Снималось в: Южная Корея
    Киностудия: Стег ван
    Время просмотра: 02: 00: 42
    Перевод текста: Любительский многоголосый STEPonee
    Файл
    Кодек для видео: MPEG-4 AVC
    Качество фильма: WEB-DLRip (AVC)
    Информация о видео: 1508 Кбит/с, 1024x432
    Информация о звуке: AC3, 2 ch, ~ 192 Кбит/с
    Без рекламы
    Семпл
    Скрытый текст

    General
    Unique ID : 229421695284150368881427592215941245463 (0xAC9902E381D1900FB0B9E811670A6A17)
    Complete name : D: Kim Seon Dal.2016.WEB-DLRip(AVC).mkv
    Format : Matroska
    Format version : Version 2
    File size : 1.44 GiB
    Duration : 2 h 0 min
    Overall bit rate : 1 702 kb/s
    Movie name : Rip by basma4i
    Encoded date : UTC 2016-09-19 08: 58: 43
    Writing application : mkvmerge v7.8.0 (;River Man;) 32bit built on Apr 3 2015 12: 11: 22
    Writing library : libebml v1.3.1 + libmatroska v1.4.2
    Video
    ID : 1
    Format : AVC
    Format/Info : Advanced Video Codec
    Format profile : High@L4.1
    Format settings, CABAC : Yes
    Format settings, ReFrames : 16 frames
    Codec ID : V_MPEG4/ISO/AVC
    Duration : 2 h 0 min
    Bit rate : 1 508 kb/s
    Width : 1 024 pixels
    Height : 432 pixels
    Display aspect ratio : 2.40: 1
    Frame rate mode : Constant
    Frame rate : 29.970 (30000/1001) FPS
    Color space : YUV
    Chroma subsampling : 4: 2: 0
    Bit depth : 8 bits
    Scan type : Progressive
    Bits/(Pixel*Frame) : 0.114
    Stream size : 1.24 GiB (87%)
    Writing library : x264 core 146 r2538 121396c
    Encoding settings : cabac=1/ref=16/deblock=1: -3: -3/analyse=0x3: 0x113/me=umh/subme=11/psy=1/psy_rd=1.00: 0.00/mixed_ref=1/me_range=48/chroma_me=1/trellis=2/8x8dct=1/cqm=0/deadzone=21, 11/fast_pskip=0/chroma_qp_offset=-2/threads=6/lookahead_threads=1/sliced_threads=0/nr=0/decimate=0/interlaced=0/bluray_compat=0/constrained_intra=0/bframes=16/b_pyramid=2/b_adapt=2/b_bias=0/direct=3/weightb=1/open_gop=1/weightp=2/keyint=240/keyint_min=23/scenecut=40/intra_refresh=0/rc_lookahead=40/rc=2pass/mbtree=1/bitrate=1508/ratetol=1.0/qcomp=0.60/qpmin=0/qpmax=69/qpstep=4/cplxblur=20.0/qblur=0.5/vbv_maxrate=14000/vbv_bufsize=14000/nal_hrd=none/filler=0/ip_ratio=1.40/aq=1: 1.10
    Default : Yes
    Forced : No
    Audio
    ID : 2
    Format : AC-3
    Format/Info : Audio Coding 3
    Mode extension : CM (complete main)
    Format settings, Endianness : Big
    Codec ID : A_AC3
    Duration : 2 h 0 min
    Bit rate mode : Constant
    Bit rate : 192 kb/s
    Channel(s) : 2 channels
    Channel positions : Front: L R
    Sampling rate : 48.0 kHz
    Frame rate : 31.250 FPS (1536 spf)
    Compression mode : Lossy
    Delay relative to video : 1 ms
    Stream size : 166 MiB (11%)
    Title : STEPonee
    Language : Russian
    Default : Yes
    Forced : No

    Скриншоты




    Онлайн видео Ким Сон-даль


    Размер скачиваемого торрента: 1.44 GB (1540896398 Bytes)

    Ким Сон-даль/Bongyi Kimseondal (2016) WEB-DLRip-AVC | L
    загрузка...
    Рейтинг →
     (голосов: 1, оценка 4/5, голосовать можно 1 раз )

    Другие торренты по теме:



      Комментарии (0):

      Информация

      Информация

        Посетители, находящиеся в группе Гости, не могут оставлять комментарии в данной новости.

        ↓ Меню



        ↓ Опрос

        А Вы добавили сайт в закладки?
        Да
        Не


        Top 10 за неделю (Фильмы)