.
Авторизация | Регистрация
» » Ренессанс: Юкки Кавамура / Renaissance: Yukie Kawamura (2010) BDRip 720p | 3D-Video скачать торрент бесплатно




    Ренессанс: Юкки Кавамура / Renaissance: Yukie Kawamura (2010) BDRip 720p | 3D-Video скачать торрент бесплатно

    Опубликовал: Админ | Дата: 23-09-2016, 05:01 | Просмотров: 59



    Детально о кино
    Русское название: Ренессанс: Юкки Кавамура
    Русское название в мировом прокате: Renaissance: Yukie Kawamura
    Создали в: 2010
    Категория жанра: Видовой, эротика
    Главный режиссер: Пони Кайон

    Актеры
    Юкие Кавамура

    Сюжет фильма
    Документальный фильм про путешествия Yukie Kawamura - сногсшибательной японки с потрясающим телом. Фильм o самой красивой на данный момент супер модели Японии. Юки Кавамура побила все возможные рейтинги популярности в Стране Восходящего Солнца и уверенно выходит на мировую арену. У Юки много созерцательного видео вышедшего на DVD, где она под идиллическую музыку гуляет по пляжу, плещется в море или бродит по красивым местам в купальнике, но с недавнего времени появились и серьёзные работы в кино.
    Снималось в: Япония
    Киностудия: Pony Canyon
    Время просмотра: 00: 50: 36
    Перевод текста: Не требуется
    Файл
    Кодек для видео: MPEG-4 AVC
    Качество фильма: BDRip (720p)
    Информация о видео: 8038 Кбит/с, 2560x720
    Информация о звуке: Японский (AAC, 2 ch, 192 Кбит/с)

    Скриншоты

    Тех Данные
    Общее
    Полное имя : D: Скачка№1Renaissance 2010 JPN 720.mp4
    Формат : MPEG-4
    Профиль формата : Base Media
    Идентификатор кодека : isom (isom/iso2/avc1/mp41)
    Размер файла : 2, 76 Гбайт
    Продолжительность : 48 м.
    Режим общего битрейта : Переменный
    Общий поток : 8232 Кбит/сек
    Дата кодирования : UTC 1970-01-01 00: 00: 00
    Дата пометки : UTC 1970-01-01 00: 00: 00
    Видео
    Идентификатор : 1
    Формат : AVC
    Формат/Информация : Advanced Video Codec
    Профиль формата : Baseline@L1.3
    Параметр CABAC формата : Нет
    Параметр ReFrames формата : 1 кадр
    Идентификатор кодека : avc1
    Идентификатор кодека/Информация : Advanced Video Coding
    Продолжительность : 48 м.
    Битрейт : 8038 Кбит/сек
    Ширина : 2560 пикселей
    Высота : 720 пикселей
    Соотношение сторон : 3, 556
    Режим частоты кадров : Постоянный
    Частота кадров : 30, 000 кадров/сек
    Цветовое пространство : YUV
    Субдискретизация насыщенности : 4: 2: 0
    Битовая глубина : 8 бит
    Тип развёртки : Прогрессивная
    Бит/(Пиксели*Кадры) : 0.145
    Размер потока : 2, 70 Гбайт (98%)
    Дата кодирования : UTC 1970-01-01 00: 00: 00
    Дата пометки : UTC 1970-01-01 00: 00: 00
    Аудио
    Идентификатор : 2
    Формат : AAC
    Формат/Информация : Advanced Audio Codec
    Профиль формата : LC
    Идентификатор кодека : 40
    Продолжительность : 48 м.
    Вид битрейта : Переменный
    Битрейт : 192 Кбит/сек
    Каналы : 2 канала
    Расположение каналов : Front: L R
    Частота : 44, 1 КГц
    Частота кадров : 43, 066 кадра/сек (1024 spf)
    Метод сжатия : С потерями
    Размер потока : 65, 2 Мбайт (2%)
    Дата кодирования : UTC 1970-01-01 00: 00: 00
    Дата пометки : UTC 1970-01-01 00: 00: 00
    * * * * * * * * * * * * * * * * * * * * * * * * * * * * * * * * * * * * * * *
    Тип видео 3D: Anamorph SideBySide/Горизонтальная анаморфная стереопара
    Порядок ракурсов: левый ракурс первый
    Просмотр рекомендован на специализированнном оборудовании: 3D blu-ray плеер (ps3) + 3D телевизор + 3D очкиили с комплектомNVIDIA® 3D Vision™, способным обеспечить работу с 3D на ПК.

    Релиз подготовил: Мастер 5
    Залил: El Banditо

    Онлайн видео Ренессанс: Юкки Кавамура


    Размер скачиваемого торрента: 2.76 GB (2968501101 Bytes)

    Ренессанс: Юкки Кавамура/Renaissance: Yukie Kawamura (2010) BDRip 720p | 3D-Video
    загрузка...
    Рейтинг →
     (голосов: 1, оценка 5/5, голосовать можно 1 раз )

    Другие торренты по теме:



      Комментарии (0):

      Информация

      Информация

        Посетители, находящиеся в группе Гости, не могут оставлять комментарии в данной новости.

        ↓ Меню



        ↓ Опрос

        А Вы добавили сайт в закладки?
        Да
        Не


        Top 10 за неделю (Фильмы)