.
Авторизация | Регистрация
Хочешь лучшие торренты? Добавь свой email!
Добавить
» » Тарзан. Легенда / The Legend of Tarzan (2016) HDRip | iTunes торрент скачать бесплатно




    Тарзан. Легенда / The Legend of Tarzan (2016) HDRip | iTunes торрент скачать бесплатно

    Опубликовал: Админ | Дата: 23-09-2016, 05:01 | Просмотров: 15



    Human. Nature
    Детально о кино
    Русское название: Тарзан. Легенда
    Русское название в мировом прокате: The Legend of Tarzan
    Создали в: 2016
    Категория жанра: Боевик, приключения
    Главный режиссер: Дэвид Йэтс

    Актеры
    Александр Скарсгард, Рори Дж. Сапер, Christian Stevens, Кристоф Вальц, Сэмюэл Л. Джексон, Марго Робби, Sidney Ralitsoele, Ози Икхайл, , Менс-Сана Тамакло, Энтони Ачеампонг

    Сюжет фильма

    Приспособившийся к жизни в Лондоне Тарзан возвращается в свой бывший дом, в джунгли, чтобы разобраться в том, что происходит в лагере горнодобывающей компании.

    Снималось в: США
    Киностудия: Dark Horse Entertainment, Jerry Weintraub Productions, Riche Productions, Village Roadshow Pictures
    Время просмотра: 01: 49: 57
    Перевод текста: Профессиональный (полное дублирование)iTunes
    Файл
    Качество фильма: HDRip
    Тип видео: AVI
    Кодек для видео: XviD
    Информация о видео: 720x304 (2, 35: 1), 23, 976 fps, XviD ~1887 kbps avg, 0.360 bit/pixel
    Информация о звуке: AC3, 48 kHz, 6 ch, ~384.00 kbps avg | русский| Профессиональный (полное дублирование)iTunes
    Информация о звуке: AC3, 48 kHz, 6 ch, ~384.00 kbps avg | английский |
    Субтитры: Отсутствуют
    Семпл
    Инфо-файл
    Общее
    Полное имя : D: TorrentsЗавершенныеTarZan.LeGenda.2O16.D.HDRip.21OOMB.avi
    Формат : AVI
    Формат/Информация : Audio Video Interleave
    Профиль формата : OpenDML
    Размер файла : 2, 05 Гбайт
    Продолжительность : 1 ч. 49 м.
    Общий поток : 2673 Кбит/сек
    Программа кодирования : VirtualDubMod 1.5.10.2 (build 2540/release)
    Библиотека кодирования : VirtualDubMod build 2540/release
    Видео
    Идентификатор : 0
    Формат : MPEG-4 Visual
    Профиль формата : Advanced Simple@L5
    Параметр BVOP формата : 2
    Параметр QPel формата : Нет
    Параметр GMC формата : Без точки перехода
    Параметр матрицы формата : Выборочная
    Идентификатор кодека : XVID
    Идентификатор кодека/Подсказка : XviD
    Продолжительность : 1 ч. 49 м.
    Битрейт : 1887 Кбит/сек
    Ширина : 720 пикселей
    Высота : 304 пикселя
    Соотношение сторон : 2, 35: 1
    Частота кадров : 23, 976 кадра/сек
    Цветовое пространство : YUV
    Субдискретизация насыщенности : 4: 2: 0
    Битовая глубина : 8 бит
    Тип развёртки : Прогрессивная
    Метод сжатия : С потерями
    Бит/(Пиксели*Кадры) : 0.360
    Размер потока : 1, 45 Гбайт (71%)
    Библиотека кодирования : XviD 1.2.1 (UTC 2008-12-04)
    Аудио #1
    Идентификатор : 1
    Формат : AC-3
    Формат/Информация : Audio Coding 3
    Расширение режима : CM (complete main)
    Параметр Endianness формата : Big
    Идентификатор кодека : 2000
    Продолжительность : 1 ч. 49 м.
    Вид битрейта : Постоянный
    Битрейт : 384 Кбит/сек
    Каналы : 6 каналов
    Расположение каналов : Front: L C R, Side: L R, LFE
    Частота : 48, 0 КГц
    Метод сжатия : С потерями
    Задержка видео : 919 мс.
    Размер потока : 302 Мбайт (14%)
    Выравнивание : Разделение по промежуткам
    Продолжительность промежутка : 42 мс. (1, 00 видеокадр)
    Время предзагрузки промежутка : 500 мс.
    Аудио #2
    Идентификатор : 2
    Формат : AC-3
    Формат/Информация : Audio Coding 3
    Расширение режима : CM (complete main)
    Параметр Endianness формата : Big
    Идентификатор кодека : 2000
    Продолжительность : 1 ч. 49 м.
    Вид битрейта : Постоянный
    Битрейт : 384 Кбит/сек
    Каналы : 6 каналов
    Расположение каналов : Front: L C R, Side: L R, LFE
    Частота : 48, 0 КГц
    Метод сжатия : С потерями
    Размер потока : 302 Мбайт (14%)
    Выравнивание : Разделение по промежуткам
    Продолжительность промежутка : 42 мс. (1, 00 видеокадр)
    Время предзагрузки промежутка : 500 мс.
    Скриншоты

    Залил: admiralkz

    Онлайн видео Тарзан. Легенда


    Размер скачиваемого торрента: 2.05 GB (2204856320 Bytes)

    Тарзан. Легенда/The Legend of Tarzan (2016) HDRip | iTunes
    загрузка...
    Рейтинг →
     (голосов: 1, оценка 5/5, голосовать можно 1 раз )

    Другие торренты по теме:

  • Тарзан. Легенда (2016)
  • Тарзан. Легенда / The Legend of Tarzan (2016) WEBRip | звук с TS
  • Тарзан. Легенда / The Legend of Tarzan (2016) WEBRip | L
  • Тарзан. Легенда / The Legend of Tarzan (2016) WEBRip 720p | Line
  • Тарзан. Легенда / The Legend of Tarzan / 2016 / ДБ (Line) / HDTVRip
  • Тарзан. Легенда / The Legend of Tarzan (2016) WEB-DLRip | iTunes
  • Тарзан. Легенда / The Legend of Tarzan (2016) WEB-DL 720p | iTunes
  • Тарзан. Легенда / The Legend of Tarzan (2016) WEB-DL 1080p | iTunes


    • Комментарии (0):

      Информация

      Информация

        Посетители, находящиеся в группе Гости, не могут оставлять комментарии в данной новости.

        ↓ Меню



        ↓ Опрос

        А Вы добавили сайт в закладки?
        Да
        Не


        Top 10 за месяц (Фильмы)